Tnt village
In memoria di Aaron
8/11/1986 - 11/01/2013
tntvillage.scambioetico.org · Statuto T.N.T.      Aiuto      Cerca      Utenti      Calendario

Questo sito non utilizza cookies a scopo di tracciamento o di profilazione. L'utilizzo dei cookies ha fini strettamente tecnici.

 

  Reply to this topicStart new topicStart Poll

> Blaze Foley - The Dawg Years (2010), [Flac CD] Country, Folk - Test&Copy + Cue (Lossless Crew)
dye
  Inviato il: Sep 14 2018, 03:53 PM
Quote Post


\"1000rel\"

Group Icon

Gruppo: Releaser
Messaggi: 1828
Utente Nr.: 889378
Iscritto il: 23-January 13



user posted image



Blaze Foley - The Dawg Years (2010)



Label: Fat Possum Records ‎– FP1223-2
Format: CD, Album
Country: US
Released: 2010
Genre: Folk, World, & Country
Style: Country, Folk



user posted image




.: Recensione :.



Michael David Fuller (December 18, 1949 – February 1, 1989), better known under the stage name Blaze Foley, was an American singer-songwriter.

Foley was born Michael David Fuller in Malvern, Arkansas, but grew up in Texas. He performed in a gospel band called The Fuller Family with his mother and sisters. After leaving home, he performed in Atlanta, Chicago, Houston, and finally Austin, Texas. He was close friends with Townes Van Zandt.

His song "If I Could Only Fly" became a hit in the interpretation of Merle Haggard. His song "Election Day" was covered by Lyle Lovett on his 2003 album "My Baby Don't Tolerate" and his song "Clay Pigeons" was covered by John Prine on his Grammy Award winning 2005 album "Fair and Square." Joe Nichols pays tribute to "If I Could Only Fly" by recording it for his album "Real Things" released in 2007.

In 1989, Foley was shot in the chest and killed by Carey January, the son of Foley's friend Concho January. Carey January was acquitted of murder in the first degree by reason of self-defense. He and his father presented completely different versions of the shooting at trial.

Foley jokingly claimed to be the illegitimate son of Red Foley and Blaze Starr.

Foley placed duct tape on the tips of his cowboy boots to mock the "Urban Cowboy" crazed folks with their silver tipped cowboy boots. He later made a suit out of duct tape that he used to walk around in. At his funeral, his casket was coated with duct tape by his friends. Townes Van Zandt was quoted as saying that he'd "have to dig Foley up to get the pawn ticket for his guitar that was in his pocket".



..: Tracklist :..


1 You'll Get Yours Aplenty 2:09
2 I Should Have Been Home 2:10
3 Tree House Lullaby 2:11
4 Election Day 2:30
5 Let Me Ride In Your Big Cadillac 2:40
6 The Moonlight Song 2:39
7 Cold, Cold World 2:34
8 Instrumental 1:46
9 Fat Boy 2:57
10 Cosmic Doo Doo 1:47
11 Crawl Back To You 2:20
12 June Or September 2:42
13 Livin' In The Woods In A Tree 2:10
14 Basil's Song 2:08
15 Rudee Down In New Orleans 2:06
16 New Wave Blues 2:11
17 Big Chief Hightower 1:49
18 Big Cheeseburgers And Good French Fries 2:29
19 Blaze Foley's 113th Wet Dream 3:04
20 Springtime In Uganda 4:42


Artwork By – Kevin Triplett
Liner Notes, Producer – Basil Bouris
Mastered By – Rick Rowe
Photography [Back Cover] – Mike Boyle
Photography [Inside] – Wanda Witt
Written-By – Blaze Foley




..: LOG :..


 



X Lossless Decoder version 20130602 (143.2)

XLD extraction logfile from 2013-09-15 17:25:53 +0200

Blaze Foley / The Dawg Years 1975-1978

Used drive : HL-DT-ST DVDRW GX40N (revision RQ00)
Media type : Pressed CD

Ripper mode : XLD Secure Ripper
Disable audio cache : OK for the drive with a cache less than 1375KiB
Make use of C2 pointers : NO
Read offset correction : 6
Max retry count : 100
Gap status : Analyzed, Appended (except HTOA)

TOC of the extracted CD
Track | Start | Length | Start sector | End sector
---------------------------------------------------------
1 | 00:00:00 | 02:09:02 | 0 | 9676
2 | 02:09:02 | 02:10:73 | 9677 | 19499
3 | 04:20:00 | 02:12:03 | 19500 | 29402
4 | 06:32:03 | 02:32:19 | 29403 | 40821
5 | 09:04:22 | 02:41:51 | 40822 | 52947
6 | 11:45:73 | 02:40:57 | 52948 | 65004
7 | 14:26:55 | 02:35:12 | 65005 | 76641
8 | 17:01:67 | 01:45:56 | 76642 | 84572
9 | 18:47:48 | 02:58:45 | 84573 | 97967
10 | 21:46:18 | 01:48:65 | 97968 | 106132
11 | 23:35:08 | 02:21:50 | 106133 | 116757
12 | 25:56:58 | 02:40:00 | 116758 | 128757
13 | 28:36:58 | 02:09:35 | 128758 | 138467
14 | 30:46:18 | 02:09:56 | 138468 | 148198
15 | 32:55:74 | 02:07:45 | 148199 | 157768
16 | 35:03:44 | 02:11:21 | 157769 | 167614
17 | 37:14:65 | 01:48:18 | 167615 | 175732
18 | 39:03:08 | 02:29:41 | 175733 | 186948
19 | 41:32:49 | 03:05:18 | 186949 | 200841
20 | 44:37:67 | 04:41:57 | 200842 | 221973

AccurateRip Summary (DiscID: 0021f648-01f2ec9d-200b8f14)
Track 01 : OK (v2, confidence 2/2)
Track 02 : OK (v2, confidence 3/3)
Track 03 : OK (v2, confidence 3/3)
Track 04 : OK (v2, confidence 3/3)
Track 05 : OK (v2, confidence 3/3)
Track 06 : OK (v2, confidence 3/3)
Track 07 : OK (v2, confidence 3/3)
Track 08 : OK (v2, confidence 3/3)
Track 09 : OK (v2, confidence 3/3)
Track 10 : OK (v2, confidence 3/3)
Track 11 : OK (v2, confidence 3/3)
Track 12 : OK (v2, confidence 3/3)
Track 13 : OK (v2, confidence 3/3)
Track 14 : OK (v2, confidence 3/3)
Track 15 : OK (v2, confidence 3/3)
Track 16 : OK (v2, confidence 3/3)
Track 17 : OK (v2, confidence 3/3)
Track 18 : OK (v2, confidence 3/3)
Track 19 : OK (v2, confidence 3/3)
Track 20 : OK (v2, confidence 3/3)
->All tracks accurately ripped.

All Tracks
Album gain : -5.57 dB
Peak : 0.962494
Statistics
Read error : 0
Jitter error (maybe fixed) : 0
Retry sector count : 0
Damaged sector count : 0

Track 01
Filename : /Users/giampieroborgonovo/Desktop/XLD/01 - You ll Get Yours Aplenty.flac
Pre-gap length : 00:02:00

Track gain : -6.84 dB
Peak : 0.962494
CRC32 hash (test run) : D14635E0
CRC32 hash : D14635E0
CRC32 hash (skip zero) : 275F3ACD
AccurateRip v1 signature : 2B93C718
AccurateRip v2 signature : C631A566
->Accurately ripped (v2, confidence 2/2)
Statistics
Read error : 0
Jitter error (maybe fixed) : 0
Retry sector count : 0
Damaged sector count : 0

Track 02
Filename : /Users/giampieroborgonovo/Desktop/XLD/02 - I Should Have Been Home.flac
Pre-gap length : 00:01:54

Track gain : -5.91 dB
Peak : 0.806030
CRC32 hash (test run) : 39CF7543
CRC32 hash : 39CF7543
CRC32 hash (skip zero) : F739C6C6
AccurateRip v1 signature : 379585B3
AccurateRip v2 signature : 672818AC
->Accurately ripped (v2, confidence 3/3)
Statistics
Read error : 0
Jitter error (maybe fixed) : 0
Retry sector count : 0
Damaged sector count : 0

Track 03
Filename : /Users/giampieroborgonovo/Desktop/XLD/03 - Tree House Lullaby.flac
Pre-gap length : 00:02:50

Track gain : -4.85 dB
Peak : 0.767365
CRC32 hash (test run) : 25B5BE6C
CRC32 hash : 25B5BE6C
CRC32 hash (skip zero) : 640688B6
AccurateRip v1 signature : C1BCB2F9
AccurateRip v2 signature : 5569C720
->Accurately ripped (v2, confidence 3/3)
Statistics
Read error : 0
Jitter error (maybe fixed) : 0
Retry sector count : 0
Damaged sector count : 0

Track 04
Filename : /Users/giampieroborgonovo/Desktop/XLD/04 - Election Day.flac
Pre-gap length : 00:02:63

Track gain : -7.10 dB
Peak : 0.827820
CRC32 hash (test run) : 58049C1C
CRC32 hash : 58049C1C
CRC32 hash (skip zero) : 1BD5DF56
AccurateRip v1 signature : A16E3BAD
AccurateRip v2 signature : 53F4C027
->Accurately ripped (v2, confidence 3/3)
Statistics
Read error : 0
Jitter error (maybe fixed) : 0
Retry sector count : 0
Damaged sector count : 0

Track 05
Filename : /Users/giampieroborgonovo/Desktop/XLD/05 - Let Me Ride in Your Big Cadillac.flac
Pre-gap length : 00:03:74

Track gain : -5.33 dB
Peak : 0.803528
CRC32 hash (test run) : CFDED74C
CRC32 hash : CFDED74C
CRC32 hash (skip zero) : 10FEA817
AccurateRip v1 signature : 40D9597E
AccurateRip v2 signature : E6E6D25F
->Accurately ripped (v2, confidence 3/3)
Statistics
Read error : 0
Jitter error (maybe fixed) : 0
Retry sector count : 0
Damaged sector count : 0

Track 06
Filename : /Users/giampieroborgonovo/Desktop/XLD/06 - The Moonlight Song.flac
Pre-gap length : 00:03:35

Track gain : -4.54 dB
Peak : 0.688049
CRC32 hash (test run) : 16B122E0
CRC32 hash : 16B122E0
CRC32 hash (skip zero) : 80E0365E
AccurateRip v1 signature : 45B29FE2
AccurateRip v2 signature : ACCE9F4F
->Accurately ripped (v2, confidence 3/3)
Statistics
Read error : 0
Jitter error (maybe fixed) : 0
Retry sector count : 0
Damaged sector count : 0

Track 07
Filename : /Users/giampieroborgonovo/Desktop/XLD/07 - Cold, Cold World.flac
Pre-gap length : 00:03:04

Track gain : -7.85 dB
Peak : 0.821472
CRC32 hash (test run) : 23541CC0
CRC32 hash : 23541CC0
CRC32 hash (skip zero) : 6B7F01AC
AccurateRip v1 signature : 0C3206A7
AccurateRip v2 signature : 7D467F73
->Accurately ripped (v2, confidence 3/3)
Statistics
Read error : 0
Jitter error (maybe fixed) : 0
Retry sector count : 0
Damaged sector count : 0

Track 08
Filename : /Users/giampieroborgonovo/Desktop/XLD/08 - Instrumental.flac
Pre-gap length : 00:03:37

Track gain : -5.95 dB
Peak : 0.870941
CRC32 hash (test run) : A562B584
CRC32 hash : A562B584
CRC32 hash (skip zero) : 88C61C3C
AccurateRip v1 signature : 9A8CED52
AccurateRip v2 signature : 346AA1FA
->Accurately ripped (v2, confidence 3/3)
Statistics
Read error : 0
Jitter error (maybe fixed) : 0
Retry sector count : 0
Damaged sector count : 0

Track 09
Filename : /Users/giampieroborgonovo/Desktop/XLD/09 - Fat Boy.flac
Pre-gap length : 00:01:39

Track gain : -6.40 dB
Peak : 0.716522
CRC32 hash (test run) : 6E291F33
CRC32 hash : 6E291F33
CRC32 hash (skip zero) : 6C75D22D
AccurateRip v1 signature : F8106BB0
AccurateRip v2 signature : 7F44F685
->Accurately ripped (v2, confidence 3/3)
Statistics
Read error : 0
Jitter error (maybe fixed) : 0
Retry sector count : 0
Damaged sector count : 0

Track 10
Filename : /Users/giampieroborgonovo/Desktop/XLD/10 - Cosmic Doo Doo.flac
Pre-gap length : 00:03:65

Track gain : -6.57 dB
Peak : 0.813110
CRC32 hash (test run) : C335F9C2
CRC32 hash : C335F9C2
CRC32 hash (skip zero) : 65742444
AccurateRip v1 signature : DBCA6E12
AccurateRip v2 signature : C5895E48
->Accurately ripped (v2, confidence 3/3)
Statistics
Read error : 0
Jitter error (maybe fixed) : 0
Retry sector count : 0
Damaged sector count : 0

Track 11
Filename : /Users/giampieroborgonovo/Desktop/XLD/11 - Crawl Back to You.flac
Pre-gap length : 00:03:24

Track gain : -5.96 dB
Peak : 0.768951
CRC32 hash (test run) : 6A638B2A
CRC32 hash : 6A638B2A
CRC32 hash (skip zero) : 9A922C04
AccurateRip v1 signature : F276BCDE
AccurateRip v2 signature : 10D90345
->Accurately ripped (v2, confidence 3/3)
Statistics
Read error : 0
Jitter error (maybe fixed) : 0
Retry sector count : 0
Damaged sector count : 0

Track 12
Filename : /Users/giampieroborgonovo/Desktop/XLD/12 - June or September.flac
Pre-gap length : 00:03:69

Track gain : -5.38 dB
Peak : 0.726593
CRC32 hash (test run) : 53A284FA
CRC32 hash : 53A284FA
CRC32 hash (skip zero) : F566433C
AccurateRip v1 signature : 299D58DD
AccurateRip v2 signature : F0C71374
->Accurately ripped (v2, confidence 3/3)
Statistics
Read error : 0
Jitter error (maybe fixed) : 0
Retry sector count : 0
Damaged sector count : 0

Track 13
Filename : /Users/giampieroborgonovo/Desktop/XLD/13 - Livin in the Woods in a Tree.flac

Track gain : -4.56 dB
Peak : 0.687927
CRC32 hash (test run) : 7A24A728
CRC32 hash : 7A24A728
CRC32 hash (skip zero) : DE95D2CE
AccurateRip v1 signature : 786F6692
AccurateRip v2 signature : 502A751E
->Accurately ripped (v2, confidence 3/3)
Statistics
Read error : 0
Jitter error (maybe fixed) : 0
Retry sector count : 0
Damaged sector count : 0

Track 14
Filename : /Users/giampieroborgonovo/Desktop/XLD/14 - Basil's Song.flac
Pre-gap length : 00:01:06

Track gain : -3.51 dB
Peak : 0.631317
CRC32 hash (test run) : DE96E4F2
CRC32 hash : DE96E4F2
CRC32 hash (skip zero) : 8702E2B3
AccurateRip v1 signature : 11A92474
AccurateRip v2 signature : 58F75150
->Accurately ripped (v2, confidence 3/3)
Statistics
Read error : 0
Jitter error (maybe fixed) : 0
Retry sector count : 0
Damaged sector count : 0

Track 15
Filename : /Users/giampieroborgonovo/Desktop/XLD/15 - Rudee Down in New Orleans.flac
Pre-gap length : 00:03:70

Track gain : -5.63 dB
Peak : 0.771362
CRC32 hash (test run) : A7231589
CRC32 hash : A7231589
CRC32 hash (skip zero) : 9F462F25
AccurateRip v1 signature : EC413EF1
AccurateRip v2 signature : 8A7AC621
->Accurately ripped (v2, confidence 3/3)
Statistics
Read error : 0
Jitter error (maybe fixed) : 0
Retry sector count : 0
Damaged sector count : 0

Track 16
Filename : /Users/giampieroborgonovo/Desktop/XLD/16 - New Wave Blues.flac
Pre-gap length : 00:03:20

Track gain : -4.87 dB
Peak : 0.694946
CRC32 hash (test run) : CCB63016
CRC32 hash : CCB63016
CRC32 hash (skip zero) : EA7AC2EF
AccurateRip v1 signature : 22BBBD02
AccurateRip v2 signature : 6E09D0B6
->Accurately ripped (v2, confidence 3/3)
Statistics
Read error : 0
Jitter error (maybe fixed) : 0
Retry sector count : 0
Damaged sector count : 0

Track 17
Filename : /Users/giampieroborgonovo/Desktop/XLD/17 - Big Chief Hightower.flac
Pre-gap length : 00:02:26

Track gain : -4.74 dB
Peak : 0.739136
CRC32 hash (test run) : 9DE68A20
CRC32 hash : 9DE68A20
CRC32 hash (skip zero) : 6EE01A02
AccurateRip v1 signature : F12862CE
AccurateRip v2 signature : 40B8E10A
->Accurately ripped (v2, confidence 3/3)
Statistics
Read error : 0
Jitter error (maybe fixed) : 0
Retry sector count : 0
Damaged sector count : 0

Track 18
Filename : /Users/giampieroborgonovo/Desktop/XLD/18 - Big Cheeseburgers and Good French Fries.flac
Pre-gap length : 00:01:41

Track gain : -4.52 dB
Peak : 0.647522
CRC32 hash (test run) : E98A3390
CRC32 hash : E98A3390
CRC32 hash (skip zero) : AE63FCD1
AccurateRip v1 signature : 61C739E5
AccurateRip v2 signature : 477AC309
->Accurately ripped (v2, confidence 3/3)
Statistics
Read error : 0
Jitter error (maybe fixed) : 0
Retry sector count : 0
Damaged sector count : 0

Track 19
Filename : /Users/giampieroborgonovo/Desktop/XLD/19 - Blaze Foley's 113th Wet Dream.flac
Pre-gap length : 00:02:54

Track gain : -3.04 dB
Peak : 0.568573
CRC32 hash (test run) : BD1FB32F
CRC32 hash : BD1FB32F
CRC32 hash (skip zero) : 99418AAB
AccurateRip v1 signature : 0496C632
AccurateRip v2 signature : D77C88DC
->Accurately ripped (v2, confidence 3/3)
Statistics
Read error : 0
Jitter error (maybe fixed) : 0
Retry sector count : 0
Damaged sector count : 0

Track 20
Filename : /Users/giampieroborgonovo/Desktop/XLD/20 - Springtime in Uganda.flac
Pre-gap length : 00:03:06

Track gain : -5.74 dB
Peak : 0.700134
CRC32 hash (test run) : ED739778
CRC32 hash : ED739778
CRC32 hash (skip zero) : C9D4C1BB
AccurateRip v1 signature : 2F94AF1F
AccurateRip v2 signature : B0D1CA78
->Accurately ripped (v2, confidence 3/3)
Statistics
Read error : 0
Jitter error (maybe fixed) : 0
Retry sector count : 0
Damaged sector count : 0

No errors occurred

End of status report






..: CUE :..



 




TITLE "The Dawg Years 1975-1978"
PERFORMER "Blaze Foley"
REM GENRE "Country & Folk"
REM DATE "2010"
REM DISCNUMBER 1
REM TOTALDISCS 1
REM DISCID 200B8F14
FILE "01 - You ll Get Yours Aplenty.wav" WAVE
TRACK 01 AUDIO
TITLE "You ll Get Yours Aplenty"
SONGWRITER "Blaze Foley"
ISRC USFP71022301
INDEX 01 00:00:00
TRACK 02 AUDIO
TITLE "I Should Have Been Home"
SONGWRITER "Blaze Foley"
ISRC USFP71022302
INDEX 00 02:07:23
FILE "02 - I Should Have Been Home.wav" WAVE
INDEX 01 00:00:00
TRACK 03 AUDIO
TITLE "Tree House Lullaby"
SONGWRITER "Blaze Foley"
ISRC USFP71022303
INDEX 00 02:08:23
FILE "03 - Tree House Lullaby.wav" WAVE
INDEX 01 00:00:00
TRACK 04 AUDIO
TITLE "Election Day"
SONGWRITER "Blaze Foley"
ISRC USFP71022304
INDEX 00 02:09:15
FILE "04 - Election Day.wav" WAVE
INDEX 01 00:00:00
TRACK 05 AUDIO
TITLE "Let Me Ride in Your Big Cadillac"
SONGWRITER "Blaze Foley"
ISRC USFP71022305
INDEX 00 02:28:20
FILE "05 - Let Me Ride in Your Big Cadillac.wav" WAVE
INDEX 01 00:00:00
TRACK 06 AUDIO
TITLE "The Moonlight Song"
SONGWRITER "Blaze Foley"
ISRC USFP71022306
INDEX 00 02:38:16
FILE "06 - The Moonlight Song.wav" WAVE
INDEX 01 00:00:00
TRACK 07 AUDIO
TITLE "Cold, Cold World"
SONGWRITER "Blaze Foley"
ISRC USFP71022307
INDEX 00 02:37:53
FILE "07 - Cold, Cold World.wav" WAVE
INDEX 01 00:00:00
TRACK 08 AUDIO
TITLE "Instrumental"
SONGWRITER "Blaze Foley"
ISRC USFP71022308
INDEX 00 02:31:50
FILE "08 - Instrumental.wav" WAVE
INDEX 01 00:00:00
TRACK 09 AUDIO
TITLE "Fat Boy"
SONGWRITER "Blaze Foley"
ISRC USFP71022309
INDEX 00 01:44:17
FILE "09 - Fat Boy.wav" WAVE
INDEX 01 00:00:00
TRACK 10 AUDIO
TITLE "Cosmic Doo Doo"
SONGWRITER "Blaze Foley"
ISRC USFP71022310
INDEX 00 02:54:55
FILE "10 - Cosmic Doo Doo.wav" WAVE
INDEX 01 00:00:00
TRACK 11 AUDIO
TITLE "Crawl Back to You"
SONGWRITER "Blaze Foley"
ISRC USFP71022311
INDEX 00 01:45:41
FILE "11 - Crawl Back to You.wav" WAVE
INDEX 01 00:00:00
TRACK 12 AUDIO
TITLE "June or September"
SONGWRITER "Blaze Foley"
ISRC USFP71022312
INDEX 00 02:17:56
FILE "12 - June or September.wav" WAVE
INDEX 01 00:00:00
FILE "13 - Livin in the Woods in a Tree.wav" WAVE
TRACK 13 AUDIO
TITLE "Livin in the Woods in a Tree"
SONGWRITER "Blaze Foley"
ISRC USFP71022313
INDEX 01 00:00:00
TRACK 14 AUDIO
TITLE "Basil's Song"
SONGWRITER "Blaze Foley"
ISRC USFP71022314
INDEX 00 02:08:29
FILE "14 - Basil's Song.wav" WAVE
INDEX 01 00:00:00
TRACK 15 AUDIO
TITLE "Rudee Down in New Orleans"
SONGWRITER "Blaze Foley"
ISRC USFP71022315
INDEX 00 02:05:61
FILE "15 - Rudee Down in New Orleans.wav" WAVE
INDEX 01 00:00:00
TRACK 16 AUDIO
TITLE "New Wave Blues"
SONGWRITER "Blaze Foley"
ISRC USFP71022316
INDEX 00 02:04:25
FILE "16 - New Wave Blues.wav" WAVE
INDEX 01 00:00:00
TRACK 17 AUDIO
TITLE "Big Chief Hightower"
SONGWRITER "Blaze Foley"
ISRC USFP71022317
INDEX 00 02:08:70
FILE "17 - Big Chief Hightower.wav" WAVE
INDEX 01 00:00:00
TRACK 18 AUDIO
TITLE "Big Cheeseburgers and Good French Fries"
SONGWRITER "Blaze Foley"
ISRC USFP71022318
INDEX 00 01:46:52
FILE "18 - Big Cheeseburgers and Good French Fries.wav" WAVE
INDEX 01 00:00:00
TRACK 19 AUDIO
TITLE "Blaze Foley's 113th Wet Dream"
SONGWRITER "Blaze Foley"
ISRC USFP71022319
INDEX 00 02:26:62
FILE "19 - Blaze Foley's 113th Wet Dream.wav" WAVE
INDEX 01 00:00:00
TRACK 20 AUDIO
TITLE "Springtime in Uganda"
SONGWRITER "Blaze Foley"
ISRC USFP71022320
INDEX 00 03:02:12
FILE "20 - Springtime in Uganda.wav" WAVE
INDEX 01 00:00:00







.: Note :.



Orario di seed e Banda disponibile: 2Mb no stop fino ad un ragionevole numero di download

Export: Nitro.to, 1337x, BT Scene, BitDown, Polskie Torrent,Glodis, Il Corsaro Nero

Messaggio modificato da dye il Sep 14 2018, 03:54 PM

> File Allegato
File Allegato   BlazeFoleyTheDawgYears.torrent
Dimensione: 147 mb
Seeder:1
Leechers: 0
Completati: 312
Data ultimo seed: 2019-03-19 15:22:26
Info_hash: D10B1AA9AC331FA89055347D2A82E8775B49B06C
Visualizza la lista dei peers
Visualizza i dettagli del torrent

♫ Lossless Crew ♫

There must be a place
Under the sun
Where hearts of olden glory
Grow young
1099 Releases
PM
Top
Africanism
Inviato il: Sep 14 2018, 04:38 PM
Quote Post


\"releaser\"
\"2000rel\"
\"coordinatore\"
\"discoteca\"
\"freeculture\"

Group Icon

Gruppo: Funzionari
Messaggi: 4911
Utente Nr.: 257546
Iscritto il: 27-December 08



Grazie dye birra.gif Sposto

PMEmail Poster
Top
Utenti totali che stanno leggendo la discussione: 0 (0 Visitatori e 0 Utenti Anonimi)
Gli utenti registrati sono 0 :
 

Topic Options Reply to this topicStart new topicStart Poll

 

Scambio etico - ethic share
 Debian powered site  Nginx powered site  Php 5 powered site  MariaDB powered site  xml rss2.0 compliant  no software patents  no software patents