Tnt village
In memoria di Aaron
8/11/1986 - 11/01/2013
tntvillage.scambioetico.org · Statuto T.N.T.      Aiuto      Cerca      Utenti      Calendario

Questo sito non utilizza cookies a scopo di tracciamento o di profilazione. L'utilizzo dei cookies ha fini strettamente tecnici.

 

  Reply to this topicStart new topicStart Poll

> Pintus@Ostia Antica - 13 settembre 2018, [H264 - Ita Aac] Webrip - Show - Comicit√†
emafox24
  Inviato il: Sep 14 2018, 12:40 PM
Quote Post



Group Icon

Gruppo: Releaser
Messaggi: 1400
Utente Nr.: 535164
Iscritto il: 27-December 10



Pintus@Ostia Antica (2018)


user posted image


.: Descrizione :.
Una serata all'insegna del grande spettacolo nella splendida cornice del Teatro Romano di Ostia Antica. Pintus mette in mostra il suo sfaccettato talento, alternando comicità, imitazioni, musica, canto e ballo.


.: Scheda tecnica :.

 

General
Complete name : C:\Users\Emanuele\Downloads\Download Torrent\Pintus@Ostia Antica (2018).mp4
Format : MPEG-4
Format profile : Base Media
Codec ID : isom (isom/iso2/avc1/mp41)
File size : 1.01 GiB
Duration : 2 h 16 min
Overall bit rate mode : Variable
Overall bit rate : 1 068 kb/s
Writing application : Lavf56.40.101

Video
ID : 1
Format : AVC
Format/Info : Advanced Video Codec
Format profile : High@L4
Format settings : CABAC / 4 Ref Frames
Format settings, CABAC : Yes
Format settings, ReFrames : 4 frames
Codec ID : avc1
Codec ID/Info : Advanced Video Coding
Duration : 2 h 16 min
Bit rate : 1 000 kb/s
Width : 768 pixels
Height : 432 pixels
Display aspect ratio : 16:9
Frame rate mode : Constant
Frame rate : 25.000 FPS
Color space : YUV
Chroma subsampling : 4:2:0
Bit depth : 8 bits
Scan type : Progressive
Bits/(Pixel*Frame) : 0.121
Stream size : 972 MiB (94%)
Writing library : x264 core 142
Encoding settings : cabac=1 / ref=3 / deblock=1:0:0 / analyse=0x3:0x113 / me=hex / subme=7 / psy=1 / psy_rd=1.00:0.00 / mixed_ref=1 / me_range=16 / chroma_me=1 / trellis=1 / 8x8dct=1 / cqm=0 / deadzone=21,11 / fast_pskip=1 / chroma_qp_offset=-2 / threads=4 / lookahead_threads=1 / sliced_threads=0 / nr=0 / decimate=1 / interlaced=0 / bluray_compat=0 / constrained_intra=0 / bframes=3 / b_pyramid=2 / b_adapt=1 / b_bias=0 / direct=1 / weightb=1 / open_gop=0 / weightp=2 / keyint=25 / keyint_min=2 / scenecut=0 / intra_refresh=0 / rc_lookahead=25 / rc=abr / mbtree=1 / bitrate=1000 / ratetol=1.0 / qcomp=0.60 / qpmin=0 / qpmax=69 / qpstep=4 / vbv_maxrate=1100 / vbv_bufsize=1000 / nal_hrd=none / filler=0 / ip_ratio=1.40 / aq=1:1.00
Codec configuration box : avcC

Audio
ID : 2
Format : AAC
Format/Info : Advanced Audio Codec
Format profile : HE-AAC / LC
Format settings : NBC
Codec ID : mp4a-40-5
Duration : 2 h 16 min
Duration_LastFrame : -28 ms
Bit rate mode : Variable
Bit rate : 64.0 kb/s
Maximum bit rate : 1 100 kb/s
Channel(s) : 2 channels
Channel positions : Front: L R
Sampling rate : 48.0 kHz / 24.0 kHz
Frame rate : 23.438 FPS (1024 SPF)
Compression mode : Lossy
Stream size : 62.3 MiB (6%)
Language : Italian
Default : Yes
Alternate group : 1



.: ScreenShot :.

 

user posted image

user posted image



.: Ringraziamenti :.

L'utente Druordoso per il seed.


.: Banda disponibile :.

2 MB/s fino ai primi 100 completati.


user posted image


Messaggio modificato da emafox24 il Sep 14 2018, 12:41 PM

> File Allegato
File Allegato   Pintus@Ostia Antica (2018).torrent
Dimensione: 1065 mb
Seeders:4
Leecher: 1
Completati: 966
Data ultimo seed: 2019-03-19 16:48:48
Info_hash: 9C908E96B10FBB89673BE655009E285B16BBB28C
Visualizza la lista dei peers
Visualizza i dettagli del torrent
PMEmail Poster
Top
AliceTNT
Inviato il: Sep 14 2018, 01:02 PM
Quote Post


\"releaser\"
\"500rel\"
\"curcoord\"
\"contribuente\"
\"tnttv\"

Group Icon

Gruppo: Dirigenti
Messaggi: 15559
Utente Nr.: 919317
Iscritto il: 9-March 13



grazie.gif sposto

Every day, pieces of history are lost forever.
A small prevention is digitizing what we can.
I am not a pirate, I am a preservationist.
But what I do is frowned upon.
Regardless, your download exists.
ENJOY AND DON'T COMPLAIN!
-NerdyJustin aka [vLtrz]
Gli alberi si mettono nelle foreste i torrent su TNT [cit. The Wisher]
PMEmail Poster
Top
Utenti totali che stanno leggendo la discussione: 0 (0 Visitatori e 0 Utenti Anonimi)
Gli utenti registrati sono 0 :
 

Topic Options Reply to this topicStart new topicStart Poll

 

Scambio etico - ethic share
 Debian powered site  Nginx powered site  Php 5 powered site  MariaDB powered site  xml rss2.0 compliant  no software patents  no software patents