Tnt village
In memoria di Aaron
8/11/1986 - 11/01/2013
tntvillage.scambioetico.org · Statuto T.N.T.      Aiuto      Cerca      Utenti      Calendario

Questo sito non utilizza cookies a scopo di tracciamento o di profilazione. L'utilizzo dei cookies ha fini strettamente tecnici.

 

  Reply to this topicStart new topicStart Poll

> Longmire S06e06, [Mux 720p - H264 - Ita Eng Ac3 - Sub Ita Eng] by Morpheus
giuseppe.bianco
  Inviato il: Aug 12 2018, 10:25 AM
Quote Post


\"2000rel\"

Group Icon

Gruppo: Releaser
Messaggi: 2718
Utente Nr.: 1516900
Iscritto il: 10-July 16



GIUSEPPEiCV & LITTLELINX
HANNO IL PIACERE DI PRESENTARE

user posted image
STAGIONE 6
WEBMUX 720p ITA - ENG


user posted image

.: Dati Serie :.

Nazione: Stati Uniti D' America
Anno: 2017
Genere: poliziesco, western
Stagione 6
Episodi: 10
Durata: 55 min circa
Lingua: ITA - ENG
IRobert Taylor: Walt Longmire
Katee Sackhoff: Victoria "Vic" Moretti
Bailey Chase: Branch Connally
Adam Bartley: "Ferg" Ferguson
Cassidy Freeman: Cady Longmire
Lou Diamond Phillips: Henry Standing Bear

.: Trama :.

Vedovo da un anno, Walt Longmire nasconde il suo dolore dietro la faccia tosta e l'umorismo sagace. Come sceriffo di Absaroka, in Wyoming, Longmire lotta per rendere la sua contea un luogo migliore per se stesso, la figlia e il resto della comunità, aiutato dal suo nuovo vice Vic Moretti e dall'amico Henry. Ma il suo carisma, la dedizione e l'imperturbabilità potrebbero non bastare per una sua rielezione, soprattutto quando l'ambizioso e giovane vice sceriffo Branch Connally decide di correre contro di lui.

.: Screenshot :.

user posted image user posted image user posted image user posted image

.: Caratteristiche Tecniche :.

 

Longmire.6x01.Spiriti.In.Aiuto.ITA.ENG.720p.WEBMux.x264-Morpheus.mkv
Format : Matroska
Format version : Version 4 / Version 2
File size : 1.60 GiB
Duration : 57mn 32s
Overall bit rate mode : Variable
Overall bit rate : 3 987 Kbps
Encoded date : UTC 2018-08-08 20:55:00
Writing application : mkvmerge v7.6.0 ('Garden of Dreams') 64bit built on Feb 8 2015 15:12:28
Writing library : libebml v1.3.1 + libmatroska v1.4.2
DURATION : 00:57:32.608000000
NUMBER_OF_FRAMES : 107894
NUMBER_OF_BYTES : 165725184
_STATISTICS_WRITING_APP : mkvmerge v7.6.0 ('Garden of Dreams') 64bit built on Feb 8 2015 15:12:28
_STATISTICS_WRITING_DATE_UTC : 2018-08-08 20:55:00
_STATISTICS_TAGS : BPS DURATION NUMBER_OF_FRAMES NUMBER_OF_BYTES

Video
ID : 1
Format : AVC
Format/Info : Advanced Video Codec
Format profile : Main@L3.1
Format settings, CABAC : Yes
Format settings, ReFrames : 3 frames
Codec ID : V_MPEG4/ISO/AVC
Duration : 57mn 32s
Bit rate mode : Variable
Bit rate : 3 320 Kbps
Maximum bit rate : 4 980 Kbps
Width : 1 280 pixels
Height : 720 pixels
Display aspect ratio : 16:9
Frame rate : 25.000 fps
Original frame rate : 23.976 fps
Color space : YUV
Chroma subsampling : 4:2:0
Bit depth : 8 bits
Scan type : Progressive
Bits/(Pixel*Frame) : 0.144
Stream size : 1.34 GiB (84%)
Writing library : x264 core 148
Encoding settings : cabac=1 / ref=3 / deblock=1:0:0 / analyse=0x1:0x111 / me=umh / subme=10 / psy=1 / psy_rd=1.00:0.00 / mixed_ref=1 / me_range=24 / chroma_me=1 / trellis=2 / 8x8dct=0 / cqm=0 / deadzone=21,11 / fast_pskip=1 / chroma_qp_offset=-2 / threads=8 / lookahead_threads=1 / sliced_threads=0 / nr=0 / decimate=1 / interlaced=0 / bluray_compat=0 / stitchable=1 / constrained_intra=0 / bframes=2 / b_pyramid=0 / b_adapt=2 / b_bias=0 / direct=3 / weightb=1 / open_gop=0 / weightp=2 / keyint=48 / keyint_min=25 / scenecut=0 / intra_refresh=0 / rc_lookahead=48 / rc=2pass / mbtree=1 / bitrate=3320 / ratetol=1.0 / qcomp=0.50 / qpmin=6 / qpmax=51 / qpstep=4 / cplxblur=20.0 / qblur=0.5 / vbv_maxrate=4980 / vbv_bufsize=6640 / nal_hrd=vbr / filler=0 / ip_ratio=1.40 / aq=1:1.00
Default : Yes
Forced : No

Audio #1
ID : 2
Format : AC-3
Format/Info : Audio Coding 3
Mode extension : CM (complete main)
Codec ID : A_AC3
Duration : 57mn 32s
Bit rate mode : Constant
Bit rate : 192 Kbps
Channel(s) : 2 channels
Channel positions : Front: L R
Sampling rate : 48.0 KHz
Bit depth : 16 bits
Compression mode : Lossy
Stream size : 79.0 MiB (5%)
Title : ITA
Language : Italian
Default : Yes
Forced : Yes

Audio #2
ID : 3
Format : AC-3
Format/Info : Audio Coding 3
Mode extension : CM (complete main)
Codec ID : A_AC3
Duration : 57mn 32s
Bit rate mode : Constant
Bit rate : 384 Kbps
Channel(s) : 6 channels
Channel positions : Front: L C R, Side: L R, LFE
Sampling rate : 48.0 KHz
Bit depth : 16 bits
Compression mode : Lossy
Stream size : 158 MiB (10%)
Title : ENG
Language : English
Default : No
Forced : No

Text #1
ID : 4
Format : UTF-8
Codec ID : S_TEXT/UTF8
Codec ID/Info : UTF-8 Plain Text
Language : Italian
Default : No
Forced : No

Text #2
ID : 5
Format : UTF-8
Codec ID : S_TEXT/UTF8
Codec ID/Info : UTF-8 Plain Text
Language : English
Default : No
Forced : No


.: Seed :.

1000 kb/s 24 ore al giorno

.: Ringraziamenti :.

user posted image


Messaggio modificato da giuseppe.bianco il Aug 12 2018, 10:26 AM

> File Allegato
File Allegato   Longmire.6x06.torrent
Dimensione: 939 mb
Seeder:1
Leechers: 0
Completati: 676
Data ultimo seed: 2019-02-18 00:35:04
Info_hash: FD6F9B9A5D081AAC6EB5379B6E6B066AE0364FF4
Visualizza la lista dei peers
Visualizza i dettagli del torrent
PMEmail Poster
Top
AliceTNT
Inviato il: Aug 12 2018, 11:09 AM
Quote Post


\"releaser\"
\"500rel\"
\"curcoord\"
\"contribuente\"
\"tnttv\"

Group Icon

Gruppo: Dirigenti
Messaggi: 15221
Utente Nr.: 919317
Iscritto il: 9-March 13



grazie.gif sposto

Every day, pieces of history are lost forever.
A small prevention is digitizing what we can.
I am not a pirate, I am a preservationist.
But what I do is frowned upon.
Regardless, your download exists.
ENJOY AND DON'T COMPLAIN!
-NerdyJustin aka [vLtrz]
Gli alberi si mettono nelle foreste i torrent su TNT [cit. The Wisher]
PMEmail Poster
Top
Glysolid
Inviato il: Aug 13 2018, 06:06 AM
Quote Post



Group Icon

Gruppo: Contribuenti
Messaggi: 835
Utente Nr.: 877880
Iscritto il: 6-January 13



grazie.gif birra.gif
PMEmail Poster
Top
Lu.Ce.56
Inviato il: Aug 16 2018, 08:18 PM
Quote Post



Group Icon

Gruppo: Residenti
Messaggi: 3241
Utente Nr.: 839924
Iscritto il: 7-November 12



Grazie!!!
PMEmail Poster
Top
Utenti totali che stanno leggendo la discussione: 0 (0 Visitatori e 0 Utenti Anonimi)
Gli utenti registrati sono 0 :
 

Topic Options Reply to this topicStart new topicStart Poll

 

Scambio etico - ethic share
 Debian powered site  Nginx powered site  Php 5 powered site  MariaDB powered site  xml rss2.0 compliant  no software patents  no software patents