Tnt village
In memoria di Aaron
8/11/1986 - 11/01/2013
tntvillage.scambioetico.org · Statuto T.N.T.      Aiuto      Cerca      Utenti      Calendario

Questo sito non utilizza cookies a scopo di tracciamento o di profilazione. L'utilizzo dei cookies ha fini strettamente tecnici.

 

  Reply to this topicStart new topicStart Poll

> Various Artists - The Many Faces Of The Police (2017), [Flac] (Box 3 CD) Pop Rock Reggae - Test&Copy + Cue - Progetto The Police (Lossless Crew)
leonenero
  Inviato il: Jul 14 2018, 02:01 AM
Quote Post


\"contribuente\"
\"releaser\"
\"250rel\"
\"coordinatore\"
\"discoteca\"

Group Icon

Gruppo: Dirigenti
Messaggi: 7441
Utente Nr.: 389044
Iscritto il: 23-December 09



user posted image | user posted image


user posted image

user posted image


Artist: Various Artists
Title Of Album: The Many Faces Of The Police
Pubblicazione: 2017
Genre: Rock-Pop-Reggae
Source: CD
CD1: Playing Time: 49:21
Total Size: 308,43 MB

CD2: Playing Time: 55:26
Total Size: 375,22 MB

CD3: Playing Time: 55:26
Total Size: 375,22 MB

Quality: FLAC + Cue + M3U8 + Log - Cover [Front Back]


user posted image


Disc: 1
1. Circa Zero Feat Andy Summers - Levitation
2. The Flying Padovanis Feat Henry Padovani - Western Pasta
3. The Racketeers Feat Stewart Copeland - Chewed Down to the Bone
4. Andy Summers & John Etheridge - Broken Brains
5. Circa Zero Feat Andy Summers - Say Goodnight
6. The Electric Chairs - Big Black Widon
7. Rusty Anderson Feat Stewart Copeland - Catbox Beach
8. Andy Summers & John Etheridge - Little Transgressions
9. Jesca Hoop Feat Stweart Copeland - Seed of Wonder
10. The Flying Padovanis Feat Henry Padovani - Vas Plus Haut
11. The Racketeers Feat Stewart Copeland - Trouble Bones
12. The Electric Chairs - Bad in Bed
13. Circa Zero Feat Andy Summers - Shout Out the Stars
14. The Racketeers Feat Stewart Copeland - Tell a Lie

Disc: 2
1. Joan Osborne - Every Breath You Take
2. Gregory Isaacs - So Lonely
3. Ali Campbell - Every Little Thing She Does Is Magic
4. Toots & the Maytals - de Do Do Do, de Da Da Da
5. Horace Andy - Invisible Sun
6. Inner Circle - the Bed'S to Big Without You
7. Junior Reid - Synchronicity 1
8. The Wailing Souls - One World (Not Three)
9. Lee Scratch Perry - Invisible Dub
10. Big Chief Monk Boudreaux & the Upressors with Ras Tree - Spirits in the Material World
11. Cyril Neville - Wrapped Around Your Finger
12. Tarrus Riley - King of Pain
13. Pepper - Can'T Stand Losing You

Disc: 3
1. The Beat - Mirror in the Bathroom
2. 999 - the Biggest Prize in Sport
3. Dirty Looks - 12 O'Clock High
4. TV 21 - End of a Dream
5. Yachts - a Fool Like You
6. Berlin Blondes - Framework
7. Department S - Is Vic There?
8. The Beat - Two Swords
9. Alternative TV - Action Time Vision
10. TV 21 - on the Run (Who'S Gonna Get Me First)
11. Dirty Looks - the Got Me Covered
12. The Flys - Looking for New Hearts
13. Afraid of Mice - Video Queen
14. Yachts - Dubmarine



user posted image


Un doveroso omaggio alla carriera dei The Police...al loro suono.

Tra la fine degli anni 70 e gli inizi degli 80 i Police sono stati uno dei gruppi più famosi al mondo e la loro storia è abbastanza conosciuta: i 3 musicisti inglesi (Sting, Andy Summers e Stewart Copeland) hanno fatto successo seguendo la scia del Punk. Poi hanno inventato il “Reggae per bianchi” ed infine si sono lasciati contaminare dalle sonorità New Wave e Pop con cui hanno chiuso prima di smettere di fare album nel 1983.


user posted image

 


Exact Audio Copy V1.0 beta 6 from 9. April 2015

EAC extraction logfile from 10. July 2018, 16:54

Various Artists / The Many Faces Of The Police - The Many Faces Of The Police

Used drive : HL-DT-STDVDRAM GP65NW60 Adapter: 1 ID: 1

Read mode : Secure
Utilize accurate stream : Yes
Defeat audio cache : Yes
Make use of C2 pointers : No

Read offset correction : 6
Overread into Lead-In and Lead-Out : No
Fill up missing offset samples with silence : Yes
Delete leading and trailing silent blocks : No
Null samples used in CRC calculations : Yes
Used interface : Native Win32 interface for Win NT & 2000
Gap handling : Appended to previous track

Used output format : User Defined Encoder
Selected bitrate : 768 kBit/s
Quality : High
Add ID3 tag : No
Command line compressor : C:\Program Files (x86)\Exact Audio Copy\Flac\flac.exe
Additional command line options : -8 -V -T "ARTIST=%artist%" -T "TITLE=%title%" -T "ALBUM=%albumtitle%" -T "DATE=%year%" -T "TRACKNUMBER=%tracknr%" -T "TOTALTRACKS=%numtracks%" -T "GENRE=%genre%" -T "ALBUM ARTIST=%albumartist%" -T "ALBUMARTIST=%albumartist%" -T "COMMENT=EAC V1.0 beta 3, Secure Mode, Test & Copy, AccurateRip, FLAC -8" %source%


TOC of the extracted CD

Track | Start | Length | Start sector | End sector
---------------------------------------------------------
1 | 0:00.00 | 4:02.19 | 0 | 18168
2 | 4:02.19 | 2:55.57 | 18169 | 31350
3 | 6:58.01 | 3:55.38 | 31351 | 49013
4 | 10:53.39 | 3:57.38 | 49014 | 66826
5 | 14:51.02 | 4:31.00 | 66827 | 87151
6 | 19:22.02 | 3:27.38 | 87152 | 102714
7 | 22:49.40 | 4:28.57 | 102715 | 122871
8 | 27:18.22 | 3:24.00 | 122872 | 138171
9 | 30:42.22 | 6:07.19 | 138172 | 165715
10 | 36:49.41 | 3:36.57 | 165716 | 181972
11 | 40:26.23 | 3:21.57 | 181973 | 197104
12 | 43:48.05 | 2:25.57 | 197105 | 208036
13 | 46:13.62 | 4:33.38 | 208037 | 228549
14 | 50:47.25 | 4:39.00 | 228550 | 249474


Track 1

Filename C:\Flac\Various Artists - The Many Faces Of The Police Box 3CD\The Many Faces Of The Police - The Many Faces Of The Police\[1] Levitation - Circa Zero feat. Andy Summers.wav

Pre-gap length 0:00:02.00

Peak level 100.0 %
Extraction speed 3.0 X
Track quality 100.0 %
Test CRC 5D4655E0
Copy CRC 5D4655E0
Cannot be verified as accurate (confidence 6) [1CB2C2A6], AccurateRip returned [4ED45617] (AR v2)
Copy OK

Track 2

Filename C:\Flac\Various Artists - The Many Faces Of The Police Box 3CD\The Many Faces Of The Police - The Many Faces Of The Police\[2] Western Pasta - The Flying Padovanis feat. Henry Padovani.wav

Pre-gap length 0:00:02.00

Peak level 100.0 %
Extraction speed 3.1 X
Track quality 100.0 %
Test CRC 97F1CE1F
Copy CRC 97F1CE1F
Cannot be verified as accurate (confidence 6) [41D25ED2], AccurateRip returned [60521447] (AR v2)
Copy OK

Track 3

Filename C:\Flac\Various Artists - The Many Faces Of The Police Box 3CD\The Many Faces Of The Police - The Many Faces Of The Police\[3] Chewed Down To The Bone - The Racketeers feat. Stewart Copeland.wav

Pre-gap length 0:00:02.00

Peak level 100.0 %
Extraction speed 3.5 X
Track quality 100.0 %
Test CRC 856CA41A
Copy CRC 856CA41A
Cannot be verified as accurate (confidence 6) [25FEEA00], AccurateRip returned [DF898AD2] (AR v2)
Copy OK

Track 4

Filename C:\Flac\Various Artists - The Many Faces Of The Police Box 3CD\The Many Faces Of The Police - The Many Faces Of The Police\[4] Broken Brains - Andy Summers and John Etheridge.wav

Pre-gap length 0:00:02.00

Peak level 100.0 %
Extraction speed 3.7 X
Track quality 100.0 %
Test CRC 97C40CB3
Copy CRC 97C40CB3
Cannot be verified as accurate (confidence 6) [2EEF1C30], AccurateRip returned [A0A1E79A] (AR v2)
Copy OK

Track 5

Filename C:\Flac\Various Artists - The Many Faces Of The Police Box 3CD\The Many Faces Of The Police - The Many Faces Of The Police\[5] Say Goodnight - Circa Zero feat. Andy Summers.wav

Pre-gap length 0:00:02.00

Peak level 100.0 %
Extraction speed 4.0 X
Track quality 100.0 %
Test CRC E1C187BF
Copy CRC E1C187BF
Cannot be verified as accurate (confidence 6) [9539401D], AccurateRip returned [F8613AB1] (AR v2)
Copy OK

Track 6

Filename C:\Flac\Various Artists - The Many Faces Of The Police Box 3CD\The Many Faces Of The Police - The Many Faces Of The Police\[6] Big Black Widon - The Electric Chairs.wav

Pre-gap length 0:00:02.00

Peak level 100.0 %
Extraction speed 3.5 X
Track quality 99.9 %
Test CRC 082879F9
Copy CRC 082879F9
Cannot be verified as accurate (confidence 6) [B8CED14A], AccurateRip returned [D45C3725] (AR v2)
Copy OK

Track 7

Filename C:\Flac\Various Artists - The Many Faces Of The Police Box 3CD\The Many Faces Of The Police - The Many Faces Of The Police\[7] Catbox Beach - Rusty Anderson feat. Stewart Copeland.wav

Pre-gap length 0:00:02.00

Peak level 94.8 %
Extraction speed 4.4 X
Track quality 100.0 %
Test CRC 0747D8BF
Copy CRC 0747D8BF
Cannot be verified as accurate (confidence 6) [F7E0A280], AccurateRip returned [83AF2A9A] (AR v2)
Copy OK

Track 8

Filename C:\Flac\Various Artists - The Many Faces Of The Police Box 3CD\The Many Faces Of The Police - The Many Faces Of The Police\[8] Little Transgressions - Andy Summers and John Etheridge.wav

Pre-gap length 0:00:02.00

Peak level 100.0 %
Extraction speed 4.4 X
Track quality 100.0 %
Test CRC F382C55E
Copy CRC F382C55E
Cannot be verified as accurate (confidence 6) [928B0027], AccurateRip returned [CE27D110] (AR v2)
Copy OK

Track 9

Filename C:\Flac\Various Artists - The Many Faces Of The Police Box 3CD\The Many Faces Of The Police - The Many Faces Of The Police\[9] Seed Of Wonder - Jesca Hoop feat. Stewart Copeland.wav

Pre-gap length 0:00:02.00

Peak level 100.0 %
Extraction speed 5.0 X
Track quality 100.0 %
Test CRC 4043A737
Copy CRC 4043A737
Cannot be verified as accurate (confidence 6) [92070C3E], AccurateRip returned [BBD6E6F0] (AR v2)
Copy OK

Track 10

Filename C:\Flac\Various Artists - The Many Faces Of The Police Box 3CD\The Many Faces Of The Police - The Many Faces Of The Police\[10] Vas Plus Haut - The Flying Padovanis feat. Henry Padovani.wav

Pre-gap length 0:00:02.00

Peak level 100.0 %
Extraction speed 4.3 X
Track quality 99.9 %
Test CRC 62CFCD74
Copy CRC 62CFCD74
Cannot be verified as accurate (confidence 6) [529D6494], AccurateRip returned [EEE8AF2F] (AR v2)
Copy OK

Track 11

Filename C:\Flac\Various Artists - The Many Faces Of The Police Box 3CD\The Many Faces Of The Police - The Many Faces Of The Police\[11] Trouble Bones - The Racketeers feat. Stewart Copeland.wav

Pre-gap length 0:00:02.00

Peak level 96.5 %
Extraction speed 4.9 X
Track quality 100.0 %
Test CRC 9C85A933
Copy CRC 9C85A933
Cannot be verified as accurate (confidence 6) [21CE8D65], AccurateRip returned [C1239FA7] (AR v2)
Copy OK

Track 12

Filename C:\Flac\Various Artists - The Many Faces Of The Police Box 3CD\The Many Faces Of The Police - The Many Faces Of The Police\[12] Bad In Bed - The Electric Chairs.wav

Pre-gap length 0:00:02.00

Peak level 100.0 %
Extraction speed 4.0 X
Track quality 99.9 %
Test CRC 83987B42
Copy CRC 83987B42
Cannot be verified as accurate (confidence 6) [C8F49BD6], AccurateRip returned [016C796B] (AR v2)
Copy OK

Track 13

Filename C:\Flac\Various Artists - The Many Faces Of The Police Box 3CD\The Many Faces Of The Police - The Many Faces Of The Police\[13] Shout Out The Stairs - Circa Zero feat. Andy Summers.wav

Pre-gap length 0:00:02.00

Peak level 94.4 %
Extraction speed 5.4 X
Track quality 100.0 %
Test CRC D1E738B4
Copy CRC D1E738B4
Cannot be verified as accurate (confidence 6) [9A0B1407], AccurateRip returned [2F321E84] (AR v2)
Copy OK

Track 14

Filename C:\Flac\Various Artists - The Many Faces Of The Police Box 3CD\The Many Faces Of The Police - The Many Faces Of The Police\[14] Tell A Lie - The Racketeers feat. Stewart Copeland.wav

Pre-gap length 0:00:02.00

Peak level 100.0 %
Extraction speed 5.6 X
Track quality 100.0 %
Test CRC B5684B1A
Copy CRC B5684B1A
Cannot be verified as accurate (confidence 6) [43F6B7E0], AccurateRip returned [F4D14C77] (AR v2)
Copy OK


No tracks could be verified as accurate
You may have a different pressing from the one(s) in the database

No errors occurred

End of status report

==== Log checksum 90795CCB05709A018C3DFE28E961F61B889F8346CF41143B3A7445B3A1B1C15F ====

------------------------------------------------------------

Exact Audio Copy V1.0 beta 6 from 9. April 2015

EAC extraction logfile from 10. July 2018, 19:21

Various Artists / The Many Faces Of Police - The Songs

Used drive : HL-DT-STDVDRAM GP65NW60 Adapter: 1 ID: 1

Read mode : Secure
Utilize accurate stream : Yes
Defeat audio cache : Yes
Make use of C2 pointers : No

Read offset correction : 6
Overread into Lead-In and Lead-Out : No
Fill up missing offset samples with silence : Yes
Delete leading and trailing silent blocks : No
Null samples used in CRC calculations : Yes
Used interface : Native Win32 interface for Win NT & 2000
Gap handling : Appended to previous track

Used output format : User Defined Encoder
Selected bitrate : 768 kBit/s
Quality : High
Add ID3 tag : No
Command line compressor : C:\Program Files (x86)\Exact Audio Copy\Flac\flac.exe
Additional command line options : -8 -V -T "ARTIST=%artist%" -T "TITLE=%title%" -T "ALBUM=%albumtitle%" -T "DATE=%year%" -T "TRACKNUMBER=%tracknr%" -T "TOTALTRACKS=%numtracks%" -T "GENRE=%genre%" -T "ALBUM ARTIST=%albumartist%" -T "ALBUMARTIST=%albumartist%" -T "COMMENT=EAC V1.0 beta 3, Secure Mode, Test & Copy, AccurateRip, FLAC -8" %source%


TOC of the extracted CD

Track | Start | Length | Start sector | End sector
---------------------------------------------------------
1 | 0:00.00 | 4:14.38 | 0 | 19087
2 | 4:14.38 | 3:39.38 | 19088 | 35550
3 | 7:54.01 | 3:24.00 | 35551 | 50850
4 | 11:18.01 | 4:14.00 | 50851 | 69900
5 | 15:32.01 | 3:52.57 | 69901 | 87357
6 | 19:24.58 | 3:49.19 | 87358 | 104551
7 | 23:14.02 | 3:39.57 | 104552 | 121033
8 | 26:53.59 | 3:54.19 | 121034 | 138602
9 | 30:48.03 | 4:05.57 | 138603 | 157034
10 | 34:53.60 | 4:11.38 | 157035 | 175897
11 | 39:05.23 | 3:52.19 | 175898 | 193316
12 | 42:57.42 | 3:41.00 | 193317 | 209891
13 | 46:38.42 | 3:52.19 | 209892 | 227310


Track 1

Filename C:\Flac\Various Artists - The Many Faces Of The Police Box 3CD\The Many Faces Of The Police - The Songs\[1] Every Breath You Take - Joan Osborne.wav

Pre-gap length 0:00:02.00

Peak level 100.0 %
Extraction speed 3.0 X
Track quality 100.0 %
Test CRC E322C844
Copy CRC E322C844
Cannot be verified as accurate (confidence 5) [6FE86C22], AccurateRip returned [4B743642] (AR v2)
Copy OK

Track 2

Filename C:\Flac\Various Artists - The Many Faces Of The Police Box 3CD\The Many Faces Of The Police - The Songs\[2] So Lonely - Gregory Isaacs.wav

Peak level 98.6 %
Extraction speed 3.2 X
Track quality 100.0 %
Test CRC CFF46D60
Copy CRC CFF46D60
Cannot be verified as accurate (confidence 5) [B3F2BCA0], AccurateRip returned [B570CE86] (AR v2)
Copy OK

Track 3

Filename C:\Flac\Various Artists - The Many Faces Of The Police Box 3CD\The Many Faces Of The Police - The Songs\[3] Every Little Thing She Does Is Magic - Ali Campbell.wav

Peak level 94.3 %
Extraction speed 3.4 X
Track quality 100.0 %
Test CRC 15BDFA63
Copy CRC 15BDFA63
Cannot be verified as accurate (confidence 5) [AF0CFC2C], AccurateRip returned [F1091B0B] (AR v2)
Copy OK

Track 4

Filename C:\Flac\Various Artists - The Many Faces Of The Police Box 3CD\The Many Faces Of The Police - The Songs\[4] De Do Do Do De Da Da Da - Toots and The Maytals.wav

Peak level 100.0 %
Extraction speed 3.7 X
Track quality 100.0 %
Test CRC F68EFDFF
Copy CRC F68EFDFF
Cannot be verified as accurate (confidence 5) [748F187F], AccurateRip returned [6C946625] (AR v2)
Copy OK

Track 5

Filename C:\Flac\Various Artists - The Many Faces Of The Police Box 3CD\The Many Faces Of The Police - The Songs\[5] Invisible Sun - Horace Andy.wav

Peak level 97.7 %
Extraction speed 3.5 X
Track quality 99.9 %
Test CRC EA4F80FF
Copy CRC EA4F80FF
Cannot be verified as accurate (confidence 5) [A197C4A7], AccurateRip returned [D65F9383] (AR v2)
Copy OK

Track 6

Filename C:\Flac\Various Artists - The Many Faces Of The Police Box 3CD\The Many Faces Of The Police - The Songs\[6] The Bed s To Big Without You - Inner Circle.wav

Peak level 87.8 %
Extraction speed 4.1 X
Track quality 100.0 %
Test CRC 018A720B
Copy CRC 018A720B
Cannot be verified as accurate (confidence 5) [7869F1A2], AccurateRip returned [D558A343] (AR v2)
Copy OK

Track 7

Filename C:\Flac\Various Artists - The Many Faces Of The Police Box 3CD\The Many Faces Of The Police - The Songs\[7] Synchronicity 1 - Junior Reid.wav

Peak level 100.0 %
Extraction speed 3.7 X
Track quality 99.9 %
Test CRC 05E258FA
Copy CRC 05E258FA
Cannot be verified as accurate (confidence 5) [4B920C32], AccurateRip returned [29405E5B] (AR v2)
Copy OK

Track 8

Filename C:\Flac\Various Artists - The Many Faces Of The Police Box 3CD\The Many Faces Of The Police - The Songs\[8] One World - The Wailing Souls.wav

Peak level 98.7 %
Extraction speed 4.5 X
Track quality 100.0 %
Test CRC 509BF0BE
Copy CRC 509BF0BE
Cannot be verified as accurate (confidence 5) [1F3A4CC3], AccurateRip returned [6DCAC1F7] (AR v2)
Copy OK

Track 9

Filename C:\Flac\Various Artists - The Many Faces Of The Police Box 3CD\The Many Faces Of The Police - The Songs\[9] Invisible Dub - Lee Scratch Perry.wav

Peak level 98.6 %
Extraction speed 4.7 X
Track quality 100.0 %
Test CRC 5F1F1375
Copy CRC 5F1F1375
Cannot be verified as accurate (confidence 5) [16F48C0D], AccurateRip returned [6CB340A4] (AR v2)
Copy OK

Track 10

Filename C:\Flac\Various Artists - The Many Faces Of The Police Box 3CD\The Many Faces Of The Police - The Songs\[10] Spirits In The Material World - Big Chief.wav

Peak level 98.6 %
Extraction speed 4.9 X
Track quality 100.0 %
Test CRC 36CDF665
Copy CRC 36CDF665
Cannot be verified as accurate (confidence 5) [F5830A98], AccurateRip returned [744F0BE9] (AR v2)
Copy OK

Track 11

Filename C:\Flac\Various Artists - The Many Faces Of The Police Box 3CD\The Many Faces Of The Police - The Songs\[11] Wrapped Around Your Finger - Cyril Neville.wav

Peak level 95.5 %
Extraction speed 5.0 X
Track quality 100.0 %
Test CRC 34F7A446
Copy CRC 34F7A446
Cannot be verified as accurate (confidence 5) [F18C2A65], AccurateRip returned [54A5E5B7] (AR v2)
Copy OK

Track 12

Filename C:\Flac\Various Artists - The Many Faces Of The Police Box 3CD\The Many Faces Of The Police - The Songs\[12] King Of Pain - Tarbus Riley.wav

Peak level 100.0 %
Extraction speed 5.1 X
Track quality 100.0 %
Test CRC B5962339
Copy CRC B5962339
Cannot be verified as accurate (confidence 5) [5EFDC723], AccurateRip returned [665BB7C2] (AR v2)
Copy OK

Track 13

Filename C:\Flac\Various Artists - The Many Faces Of The Police Box 3CD\The Many Faces Of The Police - The Songs\[13] Can t Stand Losing You - Pepper.wav

Peak level 76.8 %
Extraction speed 5.3 X
Track quality 100.0 %
Test CRC 76B95621
Copy CRC 76B95621
Cannot be verified as accurate (confidence 5) [9128DFC9], AccurateRip returned [A7BECF58] (AR v2)
Copy OK


No tracks could be verified as accurate
You may have a different pressing from the one(s) in the database

No errors occurred

End of status report

==== Log checksum AB613A4CEE8813E9C321BF67582FCB5E8CDBD4B3722046D16D9B5ED4818AAC7A ====

------------------------------------------------------------


Exact Audio Copy V1.0 beta 6 from 9. April 2015

EAC extraction logfile from 10. July 2018, 22:57

Various Artists / The Many Face of The Police - The 80s New wave Scene

Used drive : HL-DT-STDVDRAM GP65NW60 Adapter: 1 ID: 1

Read mode : Secure
Utilize accurate stream : Yes
Defeat audio cache : Yes
Make use of C2 pointers : No

Read offset correction : 6
Overread into Lead-In and Lead-Out : No
Fill up missing offset samples with silence : Yes
Delete leading and trailing silent blocks : No
Null samples used in CRC calculations : Yes
Used interface : Native Win32 interface for Win NT & 2000
Gap handling : Appended to previous track

Used output format : User Defined Encoder
Selected bitrate : 768 kBit/s
Quality : High
Add ID3 tag : No
Command line compressor : C:\Program Files (x86)\Exact Audio Copy\Flac\flac.exe
Additional command line options : -8 -V -T "ARTIST=%artist%" -T "TITLE=%title%" -T "ALBUM=%albumtitle%" -T "DATE=%year%" -T "TRACKNUMBER=%tracknr%" -T "TOTALTRACKS=%numtracks%" -T "GENRE=%genre%" -T "ALBUM ARTIST=%albumartist%" -T "ALBUMARTIST=%albumartist%" -T "COMMENT=EAC V1.0 beta 3, Secure Mode, Test & Copy, AccurateRip, FLAC -8" %source%


TOC of the extracted CD

Track | Start | Length | Start sector | End sector
---------------------------------------------------------
1 | 0:00.00 | 3:11.19 | 0 | 14343
2 | 3:11.19 | 2:53.38 | 14344 | 27356
3 | 6:04.57 | 3:58.19 | 27357 | 45225
4 | 10:03.01 | 3:13.00 | 45226 | 59700
5 | 13:16.01 | 4:20.00 | 59701 | 79200
6 | 17:36.01 | 3:36.00 | 79201 | 95400
7 | 21:12.01 | 3:04.57 | 95401 | 109257
8 | 24:16.58 | 2:17.38 | 109258 | 119570
9 | 26:34.21 | 4:21.57 | 119571 | 139202
10 | 30:56.03 | 4:31.57 | 139203 | 159584
11 | 35:27.60 | 3:11.57 | 159585 | 173966
12 | 38:39.42 | 4:04.19 | 173967 | 192285
13 | 42:43.61 | 2:50.57 | 192286 | 205092
14 | 45:34.43 | 3:46.38 | 205093 | 222080


Track 1

Filename C:\Flac\Various Artists - The Many Faces Of The Police Box 3CD\The Many Faces Of The Police - The 80 S New Wave Scene\[1] Mirror In The Bathroom - The Beat.wav

Pre-gap length 0:00:02.00

Peak level 99.9 %
Extraction speed 1.1 X
Track quality 99.9 %
Test CRC 3E2F4EDE
Copy CRC 3E2F4EDE
Track not present in AccurateRip database
Copy OK

Track 2

Filename C:\Flac\Various Artists - The Many Faces Of The Police Box 3CD\The Many Faces Of The Police - The 80 S New Wave Scene\[2] The Biggest Prize In Sport - 999.wav

Peak level 100.0 %
Extraction speed 1.3 X
Track quality 100.0 %
Test CRC F058EBFE
Copy CRC F058EBFE
Track not present in AccurateRip database
Copy OK

Track 3

Filename C:\Flac\Various Artists - The Many Faces Of The Police Box 3CD\The Many Faces Of The Police - The 80 S New Wave Scene\[3] 12 o Clock High - Dirty Looks.wav

Peak level 86.0 %
Extraction speed 1.5 X
Track quality 100.0 %
Test CRC 790324D5
Copy CRC 790324D5
Track not present in AccurateRip database
Copy OK

Track 4

Filename C:\Flac\Various Artists - The Many Faces Of The Police Box 3CD\The Many Faces Of The Police - The 80 S New Wave Scene\[4] End Of Dream - TV 21.wav

Peak level 100.0 %
Extraction speed 1.5 X
Track quality 100.0 %
Test CRC 20457810
Copy CRC 20457810
Track not present in AccurateRip database
Copy OK

Track 5

Filename C:\Flac\Various Artists - The Many Faces Of The Police Box 3CD\The Many Faces Of The Police - The 80 S New Wave Scene\[5] A Fool Like You - Yatch.wav

Peak level 100.0 %
Extraction speed 1.7 X
Track quality 100.0 %
Test CRC A6CE4F09
Copy CRC A6CE4F09
Track not present in AccurateRip database
Copy OK

Track 6

Filename C:\Flac\Various Artists - The Many Faces Of The Police Box 3CD\The Many Faces Of The Police - The 80 S New Wave Scene\[6] Framework - Berlin Blondes.wav

Peak level 100.0 %
Extraction speed 1.7 X
Track quality 100.0 %
Test CRC 2856A73E
Copy CRC 2856A73E
Track not present in AccurateRip database
Copy OK

Track 7

Filename C:\Flac\Various Artists - The Many Faces Of The Police Box 3CD\The Many Faces Of The Police - The 80 S New Wave Scene\[7] Is Vic There - Departament S.wav

Peak level 100.0 %
Extraction speed 1.8 X
Track quality 100.0 %
Test CRC EE691E8D
Copy CRC EE691E8D
Track not present in AccurateRip database
Copy OK

Track 8

Filename C:\Flac\Various Artists - The Many Faces Of The Police Box 3CD\The Many Faces Of The Police - The 80 S New Wave Scene\[8] Two Swords - The Beat.wav

Peak level 100.0 %
Extraction speed 1.7 X
Track quality 100.0 %
Test CRC 820C12D9
Copy CRC 820C12D9
Track not present in AccurateRip database
Copy OK

Track 9

Filename C:\Flac\Various Artists - The Many Faces Of The Police Box 3CD\The Many Faces Of The Police - The 80 S New Wave Scene\[9] Action Time Vision - Alternative TV.wav

Peak level 100.0 %
Extraction speed 2.0 X
Track quality 100.0 %
Test CRC 962DF295
Copy CRC 962DF295
Track not present in AccurateRip database
Copy OK

Track 10

Filename C:\Flac\Various Artists - The Many Faces Of The Police Box 3CD\The Many Faces Of The Police - The 80 S New Wave Scene\[10] On The Run - TV 21.wav

Peak level 100.0 %
Extraction speed 2.1 X
Track quality 100.0 %
Test CRC 37443F91
Copy CRC 37443F91
Track not present in AccurateRip database
Copy OK

Track 11

Filename C:\Flac\Various Artists - The Many Faces Of The Police Box 3CD\The Many Faces Of The Police - The 80 S New Wave Scene\[11] The Got Me Covered - Dirty Looks.wav

Peak level 93.3 %
Extraction speed 2.0 X
Track quality 100.0 %
Test CRC F9DAD444
Copy CRC F9DAD444
Track not present in AccurateRip database
Copy OK

Track 12

Filename C:\Flac\Various Artists - The Many Faces Of The Police Box 3CD\The Many Faces Of The Police - The 80 S New Wave Scene\[12] Looking For New Hearts - The Flis.wav

Peak level 100.0 %
Extraction speed 2.2 X
Track quality 100.0 %
Test CRC E0E1F0D1
Copy CRC E0E1F0D1
Track not present in AccurateRip database
Copy OK

Track 13

Filename C:\Flac\Various Artists - The Many Faces Of The Police Box 3CD\The Many Faces Of The Police - The 80 S New Wave Scene\[13] Video Queen - Afraid Of Mice.wav

Peak level 100.0 %
Extraction speed 2.1 X
Track quality 100.0 %
Test CRC 15A29143
Copy CRC 15A29143
Track not present in AccurateRip database
Copy OK

Track 14

Filename C:\Flac\Various Artists - The Many Faces Of The Police Box 3CD\The Many Faces Of The Police - The 80 S New Wave Scene\[14] Dubmarine - Yatch.wav

Peak level 99.8 %
Extraction speed 2.3 X
Track quality 100.0 %
Test CRC 98EE3181
Copy CRC 98EE3181
Track not present in AccurateRip database
Copy OK


None of the tracks are present in the AccurateRip database

No errors occurred

End of status report

==== Log checksum 0D57AC233E28EBBA89694C68FBC9EBA22475D6398E97EA65861979E807AF8E43 ====

------------------------------------------------------------


user posted image

Banda disponibile: 250 KB ai primi 30 completati

..RINGRAZIAMENTI..


Caraibbo - Afrcanism - Lervit - Assa - Dilling - Marainos
TNT VILLAGE


debaser per la recensione del CD.

Tutti i miei torrent sono "RESEED ON DEMAND"
è sufficiente postare nella release ed io provvederò.


user posted image
user posted image


Messaggio modificato da leonenero il Jul 14 2018, 02:58 PM

> File Allegato
File Allegato   Various Artists - The Many Faces Of The Police.torrent
Dimensione: 1042 mb
Seeder:1
Leechers: 0
Completati: 1810
Data ultimo seed: 2019-03-19 06:38:11
Info_hash: 1011F3A6A93827ABFBA0729173A856469A917568
Visualizza la lista dei peers
Visualizza i dettagli del torrent

Se io do una mela a te e tu dai una pera a me, io me ne andrò via con la tua pera e tu con la mia mela.
Ma se io do un'idea a te e tu dai un'idea a me, allora entrambi andremo via con due idee.

Sharing is a lifestyle!
PMEmail Poster
Top
assamestar
  Inviato il: Jul 14 2018, 06:18 AM
Quote Post


\"releaser\"
\"100rel\"
\"curcoord\"
\"discoteca\"
\"freeculture\"

Group Icon

Gruppo: Dirigenti
Messaggi: 3919
Utente Nr.: 1321998
Iscritto il: 8-February 15



Grazie Leo birra.gif

In All welcomeani.gif

♫ Lossless Crew ♫

O cazzi o poggi!

BASE - Baby Seeding -|- RISC - Rest In Seed Campaign -|- Kill Skype --> Move to Tox

Se io do una mela a te e tu dai una pera a me, io me ne andrò via con la tua pera e tu con la mia mela.
Ma se io do un'idea a te e tu dai un'idea a me, allora entrambi andremo via con due idee.
Sharing is a lifestyle!


Coltiva Linux che uindovs si pianta già da solo
PMEmail Poster
Top
Utenti totali che stanno leggendo la discussione: 0 (0 Visitatori e 0 Utenti Anonimi)
Gli utenti registrati sono 0 :
 

Topic Options Reply to this topicStart new topicStart Poll

 

Scambio etico - ethic share
 Debian powered site  Nginx powered site  Php 5 powered site  MariaDB powered site  xml rss2.0 compliant  no software patents  no software patents