Tnt village
tntvillage.scambioetico.org · Statuto T.N.T.      Aiuto      Cerca      Utenti      Calendario

Questo sito non utilizza cookies a scopo di tracciamento o di profilazione. L'utilizzo dei cookies ha fini strettamente tecnici.

 

  Rispondi a questa discussioneInizia nuova discussioneAvvia sondaggio

> Deep Purple - In Concert With London Symphony Orchestra (2000), [Flac] Rock (Traccia Unica)(Lossless Crew)
caraibbo
  Inviato il: May 18 2018, 05:01 AM
Cita questo messaggio


\"250rel\"
\"releaser\"

Group Icon

Gruppo: Contribuenti
Messaggi: 1591
Utente Nr.: 170584
Iscritto il: 19-November 07



user posted image



user posted image



DEEP PURPLE

-

IN CONCERT WITH LONDON SYMPHONY ORCHESTRA




user posted image



.: Dati Album :.


Titolo: Deep Purple - In Concert With London Symphony Orchestra
Anno: 2000
Genere: Rock
Etichetta: Eagle
Formato: EAC V1.0 beta 1 (secure mode) | FLAC+CUE+LOG+COVERS| 954 Mb


user posted image


Disc 1

01. Picture within
02. Wait a while
03. Sitting in a dream
04. Love is all
05. Via Miami
06. That's why God is singing the blues
07. Take it off the top
08. Wring that neck
09. Pictures of home
10. Gemini Suite - Guitar Movement


Disc 2

01. Concerto for Group and Orchestra - Movement I
02. Concerto for Group and Orchestra - Movement II
03. Concerto for Group and Orchestra - Movement III
04. Ted the Mechanic
05. Watching the Sky
06. Sometimes I Feel Like Screaming
07. Smoke on the Water
08. Before I Forget (Bonus Track)




.: Recensione :.


Ci sono voluti più di trent'anni perché i Deep Purple ritornassero alla Royal Albert Hall per rivivere e registrare nuovamente su disco quella stupenda performance che li aveva già visti protagonisti ai tempi con l'orchestra sinfonica di Londra. D'acqua sotto i ponti ne è passata parecchia, ma da quell'ultima esperienza la maturità artistica acquisita dai Deep Purple è cresciuta, pesando notevolmente sulla resa finale di questo doppio Cd: un lavoro imponente e giustamente degno di essere accostato ad una vera opera musicale. I paragoni con “S&M”, l'ultimo lavoro dei Metallica abbinato anch'esso ad un'orchestra, sono quasi d'obbligo, ma è difficile non notare che nell'incisione dei Purple esiste una sorta di feeling naturale tra le due entità musicali, una comunicazione spontanea capace di amalgamare pienamente rock e musica classica…una cosa che invece manca in alcuni punti del disco dei "four horsemen". Il primo Cd del set è forse il più melodico ed il meno dinamico. Le tracce presenti sono perlopiù parte del repertorio esclusivo di Jon Lord e Roger Glover, con una speciale apparizione ai vocals di Ronnie James Dio. Altresì la presenza di una voce femminile rende il tutto ancora più magico e "soffice", circondando le canzoni di un aura molto romantica ed eterea. Il secondo cd è quello più movimentato e la prima traccia, "Concerto For Group and Orchestra", riesce maggiormente a rendere l'idea di come rock e classica possano tranquillamente andare a braccetto, non generando alcuna confusione nell'esecuzione. Tre quinti delle canzoni qui presenti evocano prepotentemente il periodo Steve Morse, mentre "Smoke on the water", il cavallo di battaglia dei Purple, è il pezzo che trionfalmente chiude questa stupenda session.


Video dal canale youtube

  





.: Dati Tecnici :.


 Log File


EAC extraction logfile from 17. August 2007, 20:45 for CD
Deep Purple / In concert with The London Symphony Orchestra

Used drive : TEAC CD-W552E Adapter: 1 ID: 0
Read mode : Secure with NO C2, accurate stream, disable cache
Read offset correction : 6
Overread into Lead-In and Lead-Out : No

Used output format : Internal WAV Routines
44.100 Hz; 16 Bit; Stereo

Other options :
Fill up missing offset samples with silence : Yes
Delete leading and trailing silent blocks : No
Native Win32 interface for Win NT & 2000


Range status and errors
Selected range
Filename D:\CD_IMAGES\In Concert With The London Symphony Orchestra\Deep Purple - In concert with The London Symphony Orchestra.wav

Peak level 100.0 %
Range quality 100.0 %
CRC 5565273F
Copy OK

No errors occured

End of status report


EAC extraction logfile from 17. August 2007, 21:44 for CD
Deep Purple / In Concert with The London Symphony Orchestra (Disc 2)

Used drive : TEAC CD-W552E Adapter: 1 ID: 0
Read mode : Secure with NO C2, accurate stream, disable cache
Read offset correction : 6
Overread into Lead-In and Lead-Out : No

Used output format : Internal WAV Routines
44.100 Hz; 16 Bit; Stereo

Other options :
Fill up missing offset samples with silence : Yes
Delete leading and trailing silent blocks : No
Native Win32 interface for Win NT & 2000


Range status and errors
Selected range
Filename D:\CD_IMAGES\In Concert With The London Symphony Orchestra\Deep Purple - In Concert with The London Symphony Orchestra (Disc 2).wav

Peak level 100.0 %
Range quality 99.9 %
CRC 205DBA00
Copy OK

No errors occured

End of status report








 Cue File


REM GENRE Rock
REM DATE 2000
REM DISCID 9511A60B
REM COMMENT "ExactAudioCopy v0.95b4"
PERFORMER "Deep Purple"
TITLE "In concert with The London Symphony Orchestra"
FILE "Deep Purple - In concert with The London Symphony Orchestra.wav" WAVE
TRACK 01 AUDIO
TITLE "Picture within"
PERFORMER "Deep Purple"
INDEX 01 00:00:00
TRACK 02 AUDIO
TITLE "Wait a while"
PERFORMER "Deep Purple"
INDEX 01 08:37:02
TRACK 03 AUDIO
TITLE "Sitting in a dream"
PERFORMER "Deep Purple"
INDEX 01 15:21:29
TRACK 04 AUDIO
TITLE "Love is all"
PERFORMER "Deep Purple"
INDEX 01 19:22:54
TRACK 05 AUDIO
TITLE "Via Miami"
PERFORMER "Deep Purple"
INDEX 01 24:02:63
TRACK 06 AUDIO
TITLE "That's why God is singing the blues"
PERFORMER "Deep Purple"
INDEX 01 28:54:32
TRACK 07 AUDIO
TITLE "Take it off the top"
PERFORMER "Deep Purple"
INDEX 01 32:57:10
TRACK 08 AUDIO
TITLE "Wring that neck"
PERFORMER "Deep Purple"
INDEX 01 37:40:18
TRACK 09 AUDIO
TITLE "Pictures of home"
PERFORMER "Deep Purple"
INDEX 01 42:18:31
TRACK 10 AUDIO
TITLE "Gemini Suite - Guitar Movement"
PERFORMER "Jon Lord"
INDEX 01 51:41:31


REM GENRE Rock
REM DATE 1999
REM DISCID 4212CB08
REM COMMENT "ExactAudioCopy v0.95b4"
PERFORMER "Deep Purple"
TITLE "In Concert with The London Symphony Orchestra (Disc 2)"
FILE "Deep Purple - In Concert with The London Symphony Orchestra (Disc 2).wav" WAVE
TRACK 01 AUDIO
TITLE "Concerto for Group and Orchestra - Movement I"
PERFORMER "Deep Purple"
INDEX 01 00:00:00
TRACK 02 AUDIO
TITLE "Concerto for Group and Orchestra - Movement II"
PERFORMER "Deep Purple"
INDEX 00 16:58:28
INDEX 01 16:58:31
TRACK 03 AUDIO
TITLE "Concerto for Group and Orchestra - Movement III"
PERFORMER "Deep Purple"
INDEX 00 36:42:15
INDEX 01 36:42:21
TRACK 04 AUDIO
TITLE "Ted the Mechanic"
PERFORMER "Deep Purple"
INDEX 00 50:10:50
INDEX 01 50:10:58
TRACK 05 AUDIO
TITLE "Watching the Sky"
PERFORMER "Deep Purple"
INDEX 00 55:01:43
INDEX 01 55:01:51
TRACK 06 AUDIO
TITLE "Sometimes I Feel Like Screaming"
PERFORMER "Deep Purple"
INDEX 00 60:40:11
INDEX 01 60:40:27
TRACK 07 AUDIO
TITLE "Smoke on the Water"
PERFORMER "Deep Purple"
INDEX 00 68:24:31
INDEX 01 68:24:51
TRACK 08 AUDIO
TITLE "Before I Forget (Bonus Track)"
PERFORMER "Deep Purple"
INDEX 00 75:08:38
INDEX 01 75:10:38






.: Note :.

Orario di seed e Banda disponibile:

Lunedì/Venerdì dalle 15 alle 22
Sabato e festivi dalle 09 alle 22
50Kbps


RINGRAZIAMENTI

TNT - LOSSLESS CREW - CLOHIL - LEONENERO - MO YAN - KAIMANOV - IMAGESHACK - DEBASER - ALLMUSIC - ROCKOL - METALLIZED - WIKIPEDIA




user posted image




user posted imageuser posted imageuser posted imageuser posted image


Messaggio modificato da caraibbo il May 18 2018, 05:02 AM

> File Allegato
File Allegato   Deep Purple - In Concert With London Symphony Orchestra.torrent
Dimensione: 978 mb
Seeders:3
Leechers: 0
Completati: 288
Data ultimo seed: 2018-12-16 08:49:45
Info_hash: 188DFAAAA975BD780EEB280C0C1EBFBFF248DBFD
Visualizza la lista dei peers
Visualizza i dettagli del torrent

™« Lossless Crew ™«

Le mie Release RISC - Rest In Seed Campaign

Top Releaser Discoteca Gennaio-Febbraio 2013 | Top Releaser Discoteca Luglio-Agosto 2013
TNTMusic Award Diamond Disc-Maggio 2014 | TNTMusic Award Diamond Disc-Giugno 2014 | TNTMusic Award Diamond Disc-Novembre 2014
Messaggio PrivatoIndirizzo Email
Top
assamestar
  Inviato il: May 18 2018, 06:23 AM
Cita questo messaggio


\"releaser\"
\"100rel\"
\"curcoord\"
\"discoteca\"
\"freeculture\"

Group Icon

Gruppo: Dirigenti
Messaggi: 3735
Utente Nr.: 1321998
Iscritto il: 8-February 15



Grazie caraibbo birra.gif

In All angel1.gif
+sb

♫ Lossless Crew ♫

O cazzi o poggi!

BASE - Baby Seeding -|- RISC - Rest In Seed Campaign -|- Kill Skype --> Move to Tox

Se io do una mela a te e tu dai una pera a me, io me ne andrò via con la tua pera e tu con la mia mela.
Ma se io do un'idea a te e tu dai un'idea a me, allora entrambi andremo via con due idee.
Sharing is a lifestyle!


Coltiva Linux che uindovs si pianta già da solo
Messaggio PrivatoIndirizzo Email
Top
Utenti totali che stanno leggendo la discussione: 0 (0 Visitatori e 0 Utenti Anonimi)
Gli utenti registrati sono 0 :
 

Opzioni Discussione Rispondi a questa discussioneInizia nuova discussioneAvvia sondaggio

 

Scambio etico - ethic share
 Debian powered site  Nginx powered site  Php 5 powered site  MariaDB powered site  xml rss2.0 compliant  no software patents  no software patents