Tnt village
tntvillage.scambioetico.org · Statuto T.N.T.      Aiuto      Cerca      Utenti      Calendario

Questo sito non utilizza cookies a scopo di tracciamento o di profilazione. L'utilizzo dei cookies ha fini strettamente tecnici.

 

  Rispondi a questa discussioneInizia nuova discussioneAvvia sondaggio

> Free - Tons of Sobs (1968), [Flac] Blues (Traccia Unica)(Lossless Crew)
caraibbo
  Inviato il: Jan 13 2018, 07:33 AM
Cita questo messaggio


\"250rel\"
\"releaser\"

Group Icon

Gruppo: Contribuenti
Messaggi: 1588
Utente Nr.: 170584
Iscritto il: 19-November 07



user posted image user posted image


user posted image



FREE

-

TONS OF SOBS




user posted image



.: Dati Album :.


Titolo: Free - Tons Of Sobs
Anno: 1968
Genere: Blues
Etichetta: Island Records
Formato: EAC V1.0 beta 1 (secure mode) | FLAC+CUE+LOG+COVERS| 319 Mb


user posted image


01. Over The Green Hills (Part I)
02. Worry
03. Walk In My Shadow
04. Wild Indian Woman
05. Goin' Down Slow
06. I'm A Mover
07. The Hunter
08. Moonshine
09. Sweet Tooth
10. Over The Green Hills (Part II)




.: Recensione :.


19 aprile 1968: la nascita di una leggenda.

Quattro ragazzi giovani e ribelli, appena sbocciati in un'era fantastica, in un mondo in evoluzione pronto a qualsiasi cambiamento.

Il figlio di un dottore alla voce, un ragazzo di estrazione agricola alla batteria, un figlio di un celebre attore e un sedicenne reduce nientemeno che dalla band di Alexis Corner al basso.

Questa è la formula principale, le cose belle nascono quasi sempre per caso, tra gente semplice e sconosciuta. Perché Paul Rodgers scoprì di avere una voce calda e sensuale ai tempi del liceo, quando con la sua band Wildflowers coverizzava "Good Golly Miss Molly". Oppure Andy Fraser, un ragazzo di povere origini che fu espulso da scuola perché si rifiutò di tagliare i capelli e la cui madre sfacchinava tra diversi lavori per mantenere i figli.

Insomma, mettendo insieme questi quattro ragazzi in uno studio il gruppo dei Free prese forma all'istante, tanto da incidere subito quattro o cinque pezzi appena composti. La cooperazione nella scrittura delle canzoni è infatti uno dei grandi pregi dei Free: ognuno aveva un'idea totalmente diversa dall'altro che assemblate insieme formavano quei pezzi che ancora oggi sanno sorprendere e far impazzire tanta gente.

"Tons Of Sobs" è il primo di una serie di dischi di ottimo livello, ed è per certi versi il più fresco. Tutte le canzoni sono aggressive al massimo e l'importanza della rivoluzione sessuale di quegli anni è palpabile in ogni nota del disco. Basti ascoltare "Wild Indian Woman", "I'm A Mover" e "Walk in My Shadow" per rendersene conto; questi due potenti blues sono anche fin troppo espliciti, e la chitarra di Paul Kossoff si intreccia ai fraseggi di Fraser e alle rullate di Simon Kirke in un procedere sensuale e molto passionale. La voce di Paul Rodgers è poi la ciliegina sulla torta: ancora molto roca rispetto ai dischi successivi, riesce ad esprimere anche fin troppo bene il piacere lussurioso della carne, esplodendo in un orgasmo di suoni in canzoni forti e quasi erotici come "Worry" o "Sweet Tooth", caratteristica che lo afferma come una delle voci più sexy in circolazione, ancora oggi.

Il disco presenta anche parti molto intense e quasi malinconiche, come la triste "Moonshine", ballad trascinante che ha come scenario un cimitero, in cui si veglia sulla tomba di una adorabile ragazza che lascia l'uomo tutto solo a piangere la sua morte.

Intensa è anche una delle due cover presenti nel disco: "Goin' Down Slow" (Howlin' Wolf) è un blues lento e straziante, in cui il botta e risposta tra Rodgers è Kossoff sa proprio di genialità, e di cui lo stesso chitarrista affermerà più tardi che con i suoi riff esprimeva una rabbia profonda contro la tragicità della morte.

L'altra cover è tutto l'opposto: la celebre "The Hunter" di Albert King è un blues protratto ai limiti dell'aggressività, in cui il piano e l'organetto suonati da Fraser stesso sono un eccellente condimento, e in cui i primordiali assoli di Kossoff fanno da ossatura della canzone.

Uno dei fattori più geniali rimane comunque l'apertura e la chiusura del disco: le due "Over The Green Hills" sono canzoni acustiche firmate Rodgers, in cui viene esaltata la bellezza della natura rude e selvaggia.

"Tons Of Sobs" è un esordio quasi perfetto, se non fosse per l'immaturità degli arrangiamenti, molto più accurati nei dischi successivi.



Video dal canale youtube

  





.: Dati Tecnici :.


 Log File


Exact Audio Copy V0.99 prebeta 5 from 4. May 2009

Îò÷¸ò EAC îá èçâëå÷åíèè, âûïîëíåííîì 24. àïðåëÿ 2010, 14:27

Free / Tons Of Sobs

Äèñêîâîä: Optiarc DVD RW AD-7200S Adapter: 2 ID: 0

Ðåæèì ÷òåíèÿ : Äîñòîâåðíîñòü
Èñïîëüçîâàíèå òî÷íîãî ïîòîêà : Äà
Îòêëþ÷åíèå êýøà àóäèî : Äà
Èñïîëüçîâàíèå óêàçàòåëåé C2 : Íåò

îððåêöèÿ ñìåùåíèÿ ïðè ÷òåíèè : 48
Ñïîñîáíîñòü ÷èòàòü îáëàñòè Lead-in è Lead-out : Íåò
Çàïîëíåíèå ïðîïóùåííûõ ñýìïëîâ òèøèíîé : Äà
Óäàëåíèå áëîêîâ ñ òèøèíîé â íà÷àëå è êîíöå : Íåò
Ïðè âû÷èñëåíèÿõ CRC èñïîëüçîâàëèñü íóëåâûå ñýìïëû : Äà
Èíòåðôåéñ : Óñòàíîâëåííûé âíåøíèé ASPI-èíòåðôåéñ

Âûõîäíîé ôîðìàò : Âíóòðåííèå WAV-îïåðàöèè
Ôîðìàò ñýìïëîâ : 44.100 Ãö; 16 áèò; ñòåðåî


TOC èçâëå÷¸ííîãî CD

Òðåê | Ñòàðò | Äëèòåëüíîñòü | Íà÷àëüíûé ñåêòîð | îíå÷íûé ñåêòîð
---------------------------------------------------------------------
1 | 0:00.37 | 0:50.50 | 37 | 3836
2 | 0:51.12 | 3:27.35 | 3837 | 19396
3 | 4:18.47 | 3:30.00 | 19397 | 35146
4 | 7:48.47 | 3:40.40 | 35147 | 51686
5 | 11:29.12 | 8:20.63 | 51687 | 89249
6 | 19:50.00 | 2:56.12 | 89250 | 102461
7 | 22:46.12 | 4:14.28 | 102462 | 121539
8 | 27:00.40 | 5:04.60 | 121540 | 144399
9 | 32:05.25 | 4:54.20 | 144400 | 166469
10 | 36:59.45 | 1:58.30 | 166470 | 175349


Õàðàêòåðèñòèêè äèàïàçîíà èçâëå÷åíèÿ è ñîîáùåíèÿ îá îøèáêàõ

Âûáðàííûé äèàïàçîí

Èìÿ ôàéëà E:\ÌÎÈ ÐÀÇÄÀ×È\Free - Tons Of Sobs 1968\FREE - Tons Of Sobs.wav

Ïèêîâûé óðîâåíü 100.0 %
à÷åñòâî äèàïàçîíà 100.0 %
CRC òåñòà C77E7D2F
CRC êîïèè C77E7D2F
îïèðîâàíèå... OK

Îøèáîê íå ïðîèçîøëî


AccurateRip: ñâîäêà

Òðåê 1 íåò â áàçå äàííûõ
Òðåê 2 íåò â áàçå äàííûõ
Òðåê 3 íåò â áàçå äàííûõ
Òðåê 4 íåò â áàçå äàííûõ
Òðåê 5 íåò â áàçå äàííûõ
Òðåê 6 íåò â áàçå äàííûõ
Òðåê 7 íåò â áàçå äàííûõ
Òðåê 8 íåò â áàçå äàííûõ
Òðåê 9 íåò â áàçå äàííûõ
Òðåê 10 íåò â áàçå äàííûõ

Íè îäíîãî òðåêà íåò â áàçå AccurateRip

îíåö îò÷¸òà





 Cue File



REM GENRE Rock
REM DATE 1968
REM DISCID 7109220A
REM COMMENT "ExactAudioCopy v0.99pb5"
PERFORMER "Free"
TITLE "Tons Of Sobs"
FILE "FREE - Tons Of Sobs.wav" WAVE
TRACK 01 AUDIO
TITLE "Over The Green Hills (Part I)"
PERFORMER "Free"
INDEX 00 00:00:00
INDEX 01 00:00:37
TRACK 02 AUDIO
TITLE "Worry"
PERFORMER "Free"
INDEX 01 00:51:12
TRACK 03 AUDIO
TITLE "Walk In My Shadow"
PERFORMER "Free"
INDEX 01 04:18:47
TRACK 04 AUDIO
TITLE "Wild Indian Woman"
PERFORMER "Free"
INDEX 01 07:48:47
TRACK 05 AUDIO
TITLE "Goin' Down Slow"
PERFORMER "Free"
INDEX 00 11:28:38
INDEX 01 11:29:12
TRACK 06 AUDIO
TITLE "I'm A Mover"
PERFORMER "Free"
INDEX 00 19:49:03
INDEX 01 19:50:00
TRACK 07 AUDIO
TITLE "The Hunter"
PERFORMER "Free"
INDEX 01 22:46:12
TRACK 08 AUDIO
TITLE "Moonshine"
PERFORMER "Free"
INDEX 00 26:59:43
INDEX 01 27:00:40
TRACK 09 AUDIO
TITLE "Sweet Tooth"
PERFORMER "Free"
INDEX 00 32:04:28
INDEX 01 32:05:25
TRACK 10 AUDIO
TITLE "Over The Green Hills (Part II)"
PERFORMER "Free"
INDEX 01 36:59:45





.: Note :.

Orario di seed e Banda disponibile:

Lunedì/Venerdì dalle 15 alle 22
Sabato e festivi dalle 09 alle 22
50Kbps


RINGRAZIAMENTI

TNT - LOSSLESS CREW - CLOHIL - LEONENERO - MO YAN - KAIMANOV - IMAGESHACK - DEBASER - ALLMUSIC - ROCKOL - METALLIZED - WIKIPEDIA




user posted image




user posted imageuser posted imageuser posted imageuser posted image


Messaggio modificato da Africanism il Jan 13 2018, 10:05 AM

> File Allegato
File Allegato   Free - Tons Of Sobs 1968.torrent
Dimensione: 327 mb
Seeder:1
Leechers: 0
Completati: 131
Data ultimo seed: 2018-12-10 02:20:04
Info_hash: 3BC8EB08C027B174D20B2A7AFF439BF27F4BC167
Visualizza la lista dei peers
Visualizza i dettagli del torrent

™« Lossless Crew ™«

Le mie Release RISC - Rest In Seed Campaign

Top Releaser Discoteca Gennaio-Febbraio 2013 | Top Releaser Discoteca Luglio-Agosto 2013
TNTMusic Award Diamond Disc-Maggio 2014 | TNTMusic Award Diamond Disc-Giugno 2014 | TNTMusic Award Diamond Disc-Novembre 2014
Messaggio PrivatoIndirizzo Email
Top
ckullen
Inviato il: Jan 13 2018, 08:12 AM
Cita questo messaggio



Group Icon

Gruppo: Domiciliati
Messaggi: 121
Utente Nr.: 596419
Iscritto il: 9-June 11



Grande disco..... GRAZIE
Messaggio PrivatoIndirizzo Email
Top
Africanism
Inviato il: Jan 13 2018, 10:04 AM
Cita questo messaggio


\"releaser\"
\"2000rel\"
\"coordinatore\"
\"discoteca\"
\"freeculture\"

Group Icon

Gruppo: Funzionari
Messaggi: 4888
Utente Nr.: 257546
Iscritto il: 27-December 08



Grazie caraibbo birra.gif Sposto

Messaggio modificato da Africanism il Jan 13 2018, 10:05 AM

Messaggio PrivatoIndirizzo Email
Top
riscimao
Inviato il: Jan 14 2018, 02:40 AM
Cita questo messaggio



Group Icon

Gruppo: Domiciliati
Messaggi: 1092
Utente Nr.: 262875
Iscritto il: 24-January 09



Grazie
Messaggio PrivatoIndirizzo Email
Top
Utenti totali che stanno leggendo la discussione: 0 (0 Visitatori e 0 Utenti Anonimi)
Gli utenti registrati sono 0 :
 

Opzioni Discussione Rispondi a questa discussioneInizia nuova discussioneAvvia sondaggio

 

Scambio etico - ethic share
 Debian powered site  Nginx powered site  Php 5 powered site  MariaDB powered site  xml rss2.0 compliant  no software patents  no software patents