Tnt village
tntvillage.scambioetico.org · Statuto T.N.T.      Aiuto      Cerca      Utenti      Calendario

Questo sito non utilizza cookies a scopo di tracciamento o di profilazione. L'utilizzo dei cookies ha fini strettamente tecnici.

Sostieni movimentopirati.org

 

  Rispondi a questa discussioneInizia nuova discussioneAvvia sondaggio

> Verdi ‎– Masters Of Classical Music, Vol.10: Verdi, [Flac] Musica classica - Test&Copy + Cue - Progetto Musica Classica (Lossless Crew)
_Omega33_
  Inviato il: Jul 17 2017, 06:11 PM
Cita questo messaggio



Group Icon

Gruppo: Releaser
Messaggi: 50
Utente Nr.: 1358005
Iscritto il: 26-April 15




user posted image | user posted image

Verdi ‎– Masters Of Classical Music, Vol.10: Verdi (1998)

user posted image

.: Dati Album :.

Artista: Giuseppe Fortunino Francesco Verdi
Pubblicazione: 1998
Durata: 56:53
Dischi: 1
Tracce: 11
Genere: Musica Classica
Etichetta: LaserLight Digital

Se vuoi scaricare tutti i 10 volumi, clicca QUI

.: Tracklist :.

1. Nabucco: Overture
2. Nabucco: Va Pensiero, Sull'ali Dorate
3. Aida: Prelude
4. II Trovatore: Vedi! Le Fosche Notturne (Gypsies' Chorus)
5. II Trovatore: Or Co' Daddi, Ma Fra Poco (Soldiers' Chorus)
6. Aroldo: Overture
7. La Traviata: Prelude
8. La Traviata: Noi Siamo Zingarelle
9. La Traviata: Libiamo Ne' Lieti Calici
10. La Traviata: Di Madride Noi Siam Mattadori
11. La Forza del destino- Overture

.: Dati Tecnici :.

Log:

 

EAC extraction logfile from 5. February 2008, 5:18 for CD
Franz Schubert / Masters Of Classical Music (Vol. 9)

Used drive : PLEXTOR DVDR PX-716A Adapter: 1 ID: 0
Read mode : Secure with NO C2, accurate stream, disable cache
Read offset correction : 30
Overread into Lead-In and Lead-Out : Yes

Used output format : Internal WAV Routines
44.100 Hz; 16 Bit; Stereo

Other options :
Fill up missing offset samples with silence : Yes
Delete leading and trailing silent blocks : No
Installed external ASPI interface


Track 1
Filename H:\eac\Franz Schubert - Masters Of Classical Music (Vol. 9) (2008) [FLAC]\01 - Ave Maria.wav

Pre-gap length 0:00:02.37

Peak level 30.4 %
Track quality 100.0 %
Test CRC A10E19D0
Copy CRC A10E19D0
Copy OK

Track 2
Filename H:\eac\Franz Schubert - Masters Of Classical Music (Vol. 9) (2008) [FLAC]\02 - Impromptu in E flat major.wav

Pre-gap length 0:00:03.70

Peak level 80.6 %
Track quality 100.0 %
Test CRC 52C77D10
Copy CRC 52C77D10
Copy OK

Track 3
Filename H:\eac\Franz Schubert - Masters Of Classical Music (Vol. 9) (2008) [FLAC]\03 - Standchen.wav

Pre-gap length 0:00:02.70

Peak level 45.9 %
Track quality 100.0 %
Test CRC D97AEB30
Copy CRC D97AEB30
Copy OK

Track 4
Filename H:\eac\Franz Schubert - Masters Of Classical Music (Vol. 9) (2008) [FLAC]\04 - Trout Quintet- Tema con variazioni.wav

Pre-gap length 0:00:03.28

Peak level 59.4 %
Track quality 100.0 %
Test CRC 796AEFA0
Copy CRC 796AEFA0
Copy OK

Track 5
Filename H:\eac\Franz Schubert - Masters Of Classical Music (Vol. 9) (2008) [FLAC]\05 - Entr'acte No. 1 from ''Rosamunde''.wav

Pre-gap length 0:00:03.68

Peak level 62.8 %
Track quality 100.0 %
Test CRC 9B461130
Copy CRC 9B461130
Copy OK

Track 6
Filename H:\eac\Franz Schubert - Masters Of Classical Music (Vol. 9) (2008) [FLAC]\06 - Moment musical in A flat major.wav

Pre-gap length 0:00:03.35

Peak level 68.4 %
Track quality 100.0 %
Test CRC 9C158F05
Copy CRC 9C158F05
Copy OK

Track 7
Filename H:\eac\Franz Schubert - Masters Of Classical Music (Vol. 9) (2008) [FLAC]\07 - Entr'acte No. 2 from ''Rosamunde''.wav

Pre-gap length 0:00:03.50

Peak level 22.6 %
Track quality 100.0 %
Test CRC 793724AB
Copy CRC 793724AB
Copy OK

Track 8
Filename H:\eac\Franz Schubert - Masters Of Classical Music (Vol. 9) (2008) [FLAC]\08 - Moment musical No. 3 in F minor.wav

Pre-gap length 0:00:03.73

Peak level 28.4 %
Track quality 100.0 %
Test CRC 40EC79DF
Copy CRC 40EC79DF
Copy OK

Track 9
Filename H:\eac\Franz Schubert - Masters Of Classical Music (Vol. 9) (2008) [FLAC]\09 - Ballet Music No. 2 aus,from ''Rosamunde''.wav

Pre-gap length 0:00:04.05

Peak level 64.5 %
Track quality 100.0 %
Test CRC 8EDB0E18
Copy CRC 8EDB0E18
Copy OK

Track 10
Filename H:\eac\Franz Schubert - Masters Of Classical Music (Vol. 9) (2008) [FLAC]\10 - Symphony No. 8 in B minor ''Unfinished''- Allegro moderato.wav

Pre-gap length 0:00:04.08

Peak level 72.6 %
Track quality 99.9 %
Test CRC 8B79CBA8
Copy CRC 8B79CBA8
Copy OK

No errors occured


End of status report
Track Ripping Status [Disc ID: 0014b98e-930ed70a]

1 ** Rip not accurate ** (confidence 2) [6527a914] [b4f67f90]
2 ** Rip not accurate ** (confidence 2) [c26b7c21] [64555188]
3 ** Rip not accurate ** (confidence 2) [4cff0b4e] [ee5b4f4c]
4 ** Rip not accurate ** (confidence 2) [57ddc931] [e8d58f46]
5 ** Rip not accurate ** (confidence 2) [ba023619] [f6f1c17f]
6 ** Rip not accurate ** (confidence 2) [7d1bf7cb] [f504f74b]
7 ** Rip not accurate ** (confidence 2) [93c5623f] [12f65f3f]
8 ** Rip not accurate ** (confidence 2) [baca670c] [f04edbde]
9 ** Rip not accurate ** (confidence 2) [457df7dc] [2ff17bd5]
10 ** Rip not accurate ** (confidence 2) [4be50128] [4a959bbd]

_______________________

Your CD disc is possibly a different pressing to the one(s) stored in AccurateRip.


Cue:

 

REM GENRE Classical
REM DATE 2008
REM DISCID 930ED70A
REM COMMENT "ExactAudioCopy v0.95b3"
PERFORMER "Franz Schubert"
TITLE "Masters Of Classical Music (Vol. 9)"
FILE "01 - Ave Maria.wav" WAVE
TRACK 01 AUDIO
TITLE "Ave Maria"
PERFORMER "Franz Schubert"
PREGAP 00:00:37
INDEX 01 00:00:00
TRACK 02 AUDIO
TITLE "Impromptu in E flat major"
PERFORMER "Franz Schubert"
INDEX 00 04:47:30
FILE "02 - Impromptu in E flat major.wav" WAVE
INDEX 01 00:00:00
TRACK 03 AUDIO
TITLE "Standchen"
PERFORMER "Franz Schubert"
INDEX 00 04:27:05
FILE "03 - Standchen.wav" WAVE
INDEX 01 00:00:00
TRACK 04 AUDIO
TITLE "Trout Quintet: Tema con variazioni"
PERFORMER "Franz Schubert"
INDEX 00 03:17:47
FILE "04 - Trout Quintet- Tema con variazioni.wav" WAVE
INDEX 01 00:00:00
TRACK 05 AUDIO
TITLE "Entr'acte No. 1 from ''Rosamunde''"
PERFORMER "Franz Schubert"
INDEX 00 07:25:07
FILE "05 - Entr'acte No. 1 from ''Rosamunde''.wav" WAVE
INDEX 01 00:00:00
TRACK 06 AUDIO
TITLE "Moment musical in A flat major"
PERFORMER "Franz Schubert"
INDEX 00 03:47:40
FILE "06 - Moment musical in A flat major.wav" WAVE
INDEX 01 00:00:00
TRACK 07 AUDIO
TITLE "Entr'acte No. 2 from ''Rosamunde''"
PERFORMER "Franz Schubert"
INDEX 00 08:56:25
FILE "07 - Entr'acte No. 2 from ''Rosamunde''.wav" WAVE
INDEX 01 00:00:00
TRACK 08 AUDIO
TITLE "Moment musical No. 3 in F minor"
PERFORMER "Franz Schubert"
INDEX 00 08:16:02
FILE "08 - Moment musical No. 3 in F minor.wav" WAVE
INDEX 01 00:00:00
TRACK 09 AUDIO
TITLE "Ballet Music No. 2 aus/from ''Rosamunde''"
PERFORMER "Franz Schubert"
INDEX 00 01:41:70
FILE "09 - Ballet Music No. 2 aus,from ''Rosamunde''.wav" WAVE
INDEX 01 00:00:00
TRACK 10 AUDIO
TITLE "Symphony No. 8 in B minor ''Unfinished'': Allegro moderato"
PERFORMER "Franz Schubert"
INDEX 00 06:30:67
FILE "10 - Symphony No. 8 in B minor ''Unfinished''- Allegro moderato.wav" WAVE
INDEX 01 00:00:00


.: Note :.

Biografia (Wikipedia):
Giuseppe Fortunino Francesco Verdi (Le Roncole, 10 ottobre 1813 – Milano, 27 gennaio 1901) è stato un compositore italiano, tra i massimi autori di melodrammi che fanno ancora oggi parte del repertorio dei teatri di tutto il mondo.
Sebbene abbia anche composto musica non destinata al teatro, la mole e la qualità della produzione lirica di Verdi hanno fatto di lui il più grande drammaturgo musicale italiano, subentrando ai grandi protagonisti del primo Ottocento: Gioachino Rossini, Gaetano Donizetti e Vincenzo Bellini. Come il suo contemporaneo Richard Wagner, il più importante esponente e riformatore dell'opera romantica tedesca, interpretò in modo attento e originale, seppure differente, gli elementi romantici presenti nei suoi melodrammi.
Verdi, che simpatizzò con il movimento risorgimentale che perseguiva l'Unità d'Italia e partecipò attivamente per breve tempo anche alla vita politica, nel corso della sua lunga esistenza stabilì una posizione unica tra i suoi connazionali, divenendo un simbolo artistico profondo dell'unità del Paese. Fu perciò che, un mese dopo la sua morte, una solenne e sterminata processione attraversò Milano, accompagnando i suoi resti sulle note del Va pensiero, il coro degli schiavi ebrei di una delle prime opere di Verdi, il Nabucco. Il Va pensiero, scritto circa 60 anni prima, esprimendo di fatto i sentimenti degli italiani nei confronti del loro eroe scomparso, dimostrò fino a che punto la musica di Verdi fosse stata assimilata nella coscienza nazionale.
Nonostante l'influenza musicale del compositore sui suoi successori sia stata limitata, tuttavia le sue opere rimangono ancora oggi tra le più conosciute ed eseguite, in particolare la cosiddetta "trilogia popolare": Rigoletto (1851), Il trovatore (1853) e La traviata (1853).

Orario di seed e Banda disponibile:
Dalle 14 alle 24: 2MB/s
Seeding fino a 50 Completamenti


> File Allegato
File Allegato   Masters_Of_Classical_Music___Vol_10__Giuseppe_Verdi__FLAC_.torrent
Dimensione: 262 mb
Seeders:2
Leechers: 2
Completati: 274
Data ultimo seed: 2017-10-18 07:44:11
Info_hash: 7677A344B1F3201CA16E5C8ED8A1B41069AD7898
Visualizza la lista dei peers
Visualizza i dettagli del torrent


Lossless Crew - Progetto Musica Classica


Le Mie Releases - Raccolta Masters Of Classical Music


Condividere ti rende più grande di quello che sei. Più dai agli altri, più sei in grado di ricevere.
In vacanza, seed e/o reseed non possibile fino a 1/09/17

Messaggio PrivatoIndirizzo Email
Top
leonenero
Inviato il: Jul 17 2017, 06:39 PM
Cita questo messaggio


\"contribuente\"
\"releaser\"
\"250rel\"
\"coordinatore\"
\"discoteca\"

Group Icon

Gruppo: Dirigenti
Messaggi: 6580
Utente Nr.: 389044
Iscritto il: 23-December 09



Grazie _Omega33_ per l'ulteriore condivisione, avanti tutta!! welcomeani.gif birra.gif

Se io do una mela a te e tu dai una pera a me, io me ne andrò via con la tua pera e tu con la mia mela.
Ma se io do un'idea a te e tu dai un'idea a me, allora entrambi andremo via con due idee.

Sharing is a lifestyle!
Messaggio PrivatoIndirizzo Email
Top
Utenti totali che stanno leggendo la discussione: 0 (0 Visitatori e 0 Utenti Anonimi)
Gli utenti registrati sono 0 :
 

Opzioni Discussione Rispondi a questa discussioneInizia nuova discussioneAvvia sondaggio

 

Scambio etico - ethic share
 Debian powered site  Nginx powered site  Php 5 powered site  MariaDB powered site  xml rss2.0 compliant  no software patents  no software patents