Tnt village
tntvillage.scambioetico.org · Statuto T.N.T.      Aiuto      Cerca      Utenti      Calendario

Questo sito non utilizza cookies a scopo di tracciamento o di profilazione. L'utilizzo dei cookies ha fini strettamente tecnici.

Sostieni movimentopirati.org

 

  Rispondi a questa discussioneInizia nuova discussioneAvvia sondaggio

> Mozart - Masters Of Classical Music Vol.1: Mozart (1998), [Flac] Musica classica - Test&Copy + Cue - Progetto Musica Classica (Lossless Crew)
_Omega33_
  Inviato il: Apr 21 2017, 05:21 PM
Cita questo messaggio



Group Icon

Gruppo: Releaser
Messaggi: 47
Utente Nr.: 1358005
Iscritto il: 26-April 15




user posted image | user posted image

Mozart ‎– Masters Of Classical Music, Vol.1: Mozart (1998)

user posted image

.: Dati Album :.

Artista: Wolfgang Amadeus Mozart
Pubblicazione: 1998
Durata: 66:38
Dischi: 1
Tracce: 11
Genere: Musica Classica
Etichetta: LaserLight Digital

.: Tracklist :.


1. Eine Kleine Nachtmusik: Allegro
2. Piano Concerto In A Major, K 488: Adagio
3. Flute Concerto In D Major, K 314: Allegro
4. Symphony No. 40 In G Minor: Molto Allegro
5. Clarinet Concerto Kv 622: Adagio
6. Serenade, K 375: Menuetto
7. Turkish March
8. Violin Concerto, K 216: Allegro
9. Divertimento, K 334: Menuetto
10. Horn Concerto, K 447: Allegro
11. Cassation, K 99: Allegro

.: Dati Tecnici :.

Log:

 

Exact Audio Copy V1.1 from 23. June 2015

EAC extraction logfile from 4. September 2015, 17:08

Various / Die grossen Meister der klassischen Musik Vol. 1 - Mozart

Used drive : HL-DT-STDVDRAM GH24NSB0 Adapter: 1 ID: 0

Read mode : Secure
Utilize accurate stream : Yes
Defeat audio cache : Yes
Make use of C2 pointers : No

Read offset correction : 6
Overread into Lead-In and Lead-Out : No
Fill up missing offset samples with silence : Yes
Delete leading and trailing silent blocks : No
Null samples used in CRC calculations : Yes
Used interface : Native Win32 interface for Win NT & 2000
Gap handling : Appended to previous track

Used output format : User Defined Encoder
Selected bitrate : 768 kBit/s
Quality : High
Add ID3 tag : No
Command line compressor : C:\Program Files (x86)\Exact Audio Copy\Flac\flac.exe
Additional command line options : -8 -V -T "ARTIST=%artist%" -T "TITLE=%title%" -T "ALBUM=%albumtitle%" -T "DATE=%year%" -T "TRACKNUMBER=%tracknr%" -T "GENRE=%genre%" -T "PERFORMER=%albuminterpret%" -T "COMPOSER=%composer%" %haslyrics%--tag-from-file=LYRICS="%lyricsfile%"%haslyrics% -T "ALBUMARTIST=%albumartist%" -T "ALBUM ARTIST=%albumartist%" -T "DISCNUMBER=%cdnumber%" -T "TOTALDISCS=%totalcds%" -T "TOTALTRACKS=%numtracks%" -T "COMMENT=EAC V1.0 beta 2, Secure Mode, Test & Copy, AccurateRip, FLAC -8" %source% -o %dest%


TOC of the extracted CD

Track | Start | Length | Start sector | End sector
---------------------------------------------------------
1 | 0:00.00 | 5:44.00 | 0 | 25799
2 | 5:44.00 | 6:16.00 | 25800 | 53999
3 | 12:00.00 | 5:42.00 | 54000 | 79649
4 | 17:42.00 | 7:39.00 | 79650 | 114074
5 | 25:21.00 | 7:01.00 | 114075 | 145649
6 | 32:22.00 | 3:02.00 | 145650 | 159299
7 | 35:24.00 | 3:41.00 | 159300 | 175874
8 | 39:05.00 | 9:33.00 | 175875 | 218849
9 | 48:38.00 | 4:50.00 | 218850 | 240599
10 | 53:28.00 | 8:00.00 | 240600 | 276599
11 | 61:28.00 | 5:10.25 | 276600 | 299874


Track 1

Filename C:\Users\Rossella\Desktop\FLAC\Masters Of Classical Music - Mozart Vol 1 - 1988 [FLAC] [RLG]\01 Eine kleine Nachtmusik- Allegro.wav

Pre-gap length 0:00:02.00

Peak level 48.1 %
Extraction speed 1.1 X
Track quality 100.0 %
Copy CRC 9A2E86E7
Accurately ripped (confidence 5) [7508CE73] (AR v2)
Copy OK

Track 2

Filename C:\Users\Rossella\Desktop\FLAC\Masters Of Classical Music - Mozart Vol 1 - 1988 [FLAC] [RLG]\02 Klavierkonzert A-dur - Piano Concerto in A major, KV 488- Adagio.wav

Pre-gap length 0:00:05.13

Peak level 64.2 %
Extraction speed 1.3 X
Track quality 100.0 %
Copy CRC EF4F86A3
Accurately ripped (confidence 6) [18E51499] (AR v2)
Copy OK

Track 3

Filename C:\Users\Rossella\Desktop\FLAC\Masters Of Classical Music - Mozart Vol 1 - 1988 [FLAC] [RLG]\03 Flötenkonzert D-dur Flute - Concerto in D major, KV 314- Allegro.wav

Pre-gap length 0:00:05.10

Peak level 61.6 %
Extraction speed 1.5 X
Track quality 100.0 %
Copy CRC F2CF3E32
Accurately ripped (confidence 6) [D6F941A1] (AR v2)
Copy OK

Track 4

Filename C:\Users\Rossella\Desktop\FLAC\Masters Of Classical Music - Mozart Vol 1 - 1988 [FLAC] [RLG]\04 Symphonie No. 40 g-moll - Symphony No. 40 in G minor- Molto allegro.wav

Pre-gap length 0:00:05.26

Peak level 84.4 %
Extraction speed 1.7 X
Track quality 100.0 %
Copy CRC 7F896D7A
Accurately ripped (confidence 6) [CF8DEE4D] (AR v2)
Copy OK

Track 5

Filename C:\Users\Rossella\Desktop\FLAC\Masters Of Classical Music - Mozart Vol 1 - 1988 [FLAC] [RLG]\05 Klarinettenkonzert - Clarinet Concerto KV 622- Adagio.wav

Pre-gap length 0:00:05.33

Peak level 68.1 %
Extraction speed 1.8 X
Track quality 100.0 %
Copy CRC C20CBCE8
Accurately ripped (confidence 6) [CFDD8BD1] (AR v2)
Copy OK

Track 6

Filename C:\Users\Rossella\Desktop\FLAC\Masters Of Classical Music - Mozart Vol 1 - 1988 [FLAC] [RLG]\06 Serenade, KV 375- Menuetto.wav

Pre-gap length 0:00:05.06

Peak level 47.9 %
Extraction speed 1.7 X
Track quality 100.0 %
Copy CRC CEB78C54
Accurately ripped (confidence 6) [8DB4D16B] (AR v2)
Copy OK

Track 7

Filename C:\Users\Rossella\Desktop\FLAC\Masters Of Classical Music - Mozart Vol 1 - 1988 [FLAC] [RLG]\07 Türkischer Marsch - Turkish March.wav

Pre-gap length 0:00:05.90

Peak level 47.5 %
Extraction speed 1.8 X
Track quality 100.0 %
Copy CRC 03DAE60D
Accurately ripped (confidence 6) [BDD9A4B2] (AR v2)
Copy OK

Track 8

Filename C:\Users\Rossella\Desktop\FLAC\Masters Of Classical Music - Mozart Vol 1 - 1988 [FLAC] [RLG]\08 Violinkonzert - Violin Concerto, KV 216- Allegro.wav

Pre-gap length 0:00:04.66

Peak level 64.1 %
Extraction speed 2.0 X
Track quality 99.9 %
Copy CRC 79DF0731
Accurately ripped (confidence 6) [8410F8B6] (AR v2)
Copy OK

Track 9

Filename C:\Users\Rossella\Desktop\FLAC\Masters Of Classical Music - Mozart Vol 1 - 1988 [FLAC] [RLG]\09 Divertimento, KV 334- Menuetto.wav

Pre-gap length 0:00:05.24

Peak level 85.2 %
Extraction speed 2.1 X
Track quality 100.0 %
Copy CRC CBB4317E
Accurately ripped (confidence 6) [447FE032] (AR v2)
Copy OK

Track 10

Filename C:\Users\Rossella\Desktop\FLAC\Masters Of Classical Music - Mozart Vol 1 - 1988 [FLAC] [RLG]\10 Hornkonzert - Horn Concerto, KV 447- Allegro.wav

Pre-gap length 0:00:04.73

Peak level 75.3 %
Extraction speed 2.3 X
Track quality 100.0 %
Copy CRC 2FFDBB11
Accurately ripped (confidence 6) [65F495AB] (AR v2)
Copy OK

Track 11

Filename C:\Users\Rossella\Desktop\FLAC\Masters Of Classical Music - Mozart Vol 1 - 1988 [FLAC] [RLG]\11 Cassation, KV 99- Allegro.wav

Pre-gap length 0:00:05.64

Peak level 50.1 %
Extraction speed 2.3 X
Track quality 100.0 %
Copy CRC 451A04BE
Accurately ripped (confidence 6) [D01455DB] (AR v2)
Copy OK


All tracks accurately ripped

No errors occurred

End of status report

---- CUETools DB Plugin V2.1.6

[CTDB TOCID: Q.BgQq5fzux31bT7dHTRCwtStTo-] found
Submit result: already submitted
Track | CTDB Status
1 | (53/56) Accurately ripped
2 | (56/56) Accurately ripped
3 | (56/56) Accurately ripped
4 | (56/56) Accurately ripped
5 | (55/56) Accurately ripped
6 | (56/56) Accurately ripped
7 | (55/56) Accurately ripped
8 | (54/56) Accurately ripped
9 | (54/56) Accurately ripped
10 | (55/56) Accurately ripped
11 | (55/56) Accurately ripped


==== Log checksum D3C1CB292611CC1D0A830C0A485E756803FBFF8ADAE6A718D4202FE29A4B10A8 ====


Cue:

 

REM GENRE Classical
REM DATE 1988
REM DISCID 820F9E0B
REM COMMENT "ExactAudioCopy v1.1"
PERFORMER "Various"
TITLE "Die grossen Meister der klassischen Musik Vol. 1 - Mozart"
FILE "01 Eine kleine Nachtmusik- Allegro.wav" WAVE
TRACK 01 AUDIO
TITLE "Eine kleine Nachtmusik: Allegro"
PERFORMER "Wiener Mozart Ensemble, Herbert Kraus"
INDEX 01 00:00:00
TRACK 02 AUDIO
TITLE "Klavierkonzert A-dur - Piano Concerto in A major, KV 488: Adagio"
PERFORMER "Zolt·n Kocsis, Franz Liszt Kammerorchester, Janos Rolla"
INDEX 00 05:38:65
FILE "02 Klavierkonzert A-dur - Piano Concerto in A major, KV 488- Adagio.wav" WAVE
INDEX 01 00:00:00
TRACK 03 AUDIO
TITLE "Flˆtenkonzert D-dur Flute - Concerto in D major, KV 314: Allegro"
PERFORMER "Bela Drahos, Franz Liszt Kammerorchester, Janos Rolla"
INDEX 00 06:10:67
FILE "03 Flˆtenkonzert D-dur Flute - Concerto in D major, KV 314- Allegro.wav" WAVE
INDEX 01 00:00:00
TRACK 04 AUDIO
TITLE "Symphonie No. 40 g-moll - Symphony No. 40 in G minor: Molto allegro"
PERFORMER "Mozarteum Orchester Salzburg, Hans Graf"
INDEX 00 05:36:55
FILE "04 Symphonie No. 40 g-moll - Symphony No. 40 in G minor- Molto allegro.wav" WAVE
INDEX 01 00:00:00
TRACK 05 AUDIO
TITLE "Klarinettenkonzert - Clarinet Concerto KV 622: Adagio"
PERFORMER "Bela Kovacs, Franz Liszt Kammerorchester, Janos Rolla"
INDEX 00 07:33:50
FILE "05 Klarinettenkonzert - Clarinet Concerto KV 622- Adagio.wav" WAVE
INDEX 01 00:00:00
TRACK 06 AUDIO
TITLE "Serenade, KV 375: Menuetto"
PERFORMER "Budapester Bl‰serensemble"
INDEX 00 06:55:70
FILE "06 Serenade, KV 375- Menuetto.wav" WAVE
INDEX 01 00:00:00
TRACK 07 AUDIO
TITLE "T¸rkischer Marsch - Turkish March"
PERFORMER "Evelyne Dubourg"
INDEX 00 02:56:07
FILE "07 T¸rkischer Marsch - Turkish March.wav" WAVE
INDEX 01 00:00:00
TRACK 08 AUDIO
TITLE "Violinkonzert - Violin Concerto, KV 216: Allegro"
PERFORMER "Christian Altenburger, Deutsche Bachsolisten, Helmut Winschermann"
INDEX 00 03:36:25
FILE "08 Violinkonzert - Violin Concerto, KV 216- Allegro.wav" WAVE
INDEX 01 00:00:00
TRACK 09 AUDIO
TITLE "Divertimento, KV 334: Menuetto"
PERFORMER "Camerata Salzburg, Sandor Vegh"
INDEX 00 09:27:57
FILE "09 Divertimento, KV 334- Menuetto.wav" WAVE
INDEX 01 00:00:00
TRACK 10 AUDIO
TITLE "Hornkonzert - Horn Concerto, KV 447: Allegro"
PERFORMER "Bernd Heiser, Wiener Mozart-Ensemble, Herbert Kraus"
INDEX 00 04:45:20
FILE "10 Hornkonzert - Horn Concerto, KV 447- Allegro.wav" WAVE
INDEX 01 00:00:00
TRACK 11 AUDIO
TITLE "Cassation, KV 99: Allegro"
PERFORMER "Camerata Salzburg, Sandor Vegh"
INDEX 00 07:54:27
FILE "11 Cassation, KV 99- Allegro.wav" WAVE
INDEX 01 00:00:00


.: Note :.

Biografia (Wikipedia):
Wolfgang Amadeus Mozart (al battesimo Joannes Chrysostomus Wolfgangus Theophilus Mozart; Salisburgo, 27 gennaio 1756 – Vienna, 5 dicembre 1791) è stato un compositore, pianista, organista, violinista e clavicembalista austriaco a cui è universalmente riconosciuta la creazione di opere musicali di straordinario valore artistico.

Mozart è annoverato tra i più grandi geni della storia della musica, dotato di raro e precoce talento. Iniziò a comporre all'età di 5 anni (la sua prima composizione, un andante per clavicembalo, risale ai primi mesi del 1761) e morì all'età di trentacinque anni, lasciando pagine indimenticabili di musica, tant'è che è stato definito dal Grove Dictionary come "il compositore più universale nella storia della musica occidentale": la sua produzione comprende musica sinfonica, sacra, da camera e opere di vario genere.

Fu il primo, fra i musicisti più importanti, a svincolarsi dalla servitù feudale e a intraprendere una carriera come libero professionista.

È uno dei massimi esponenti del classicismo musicale settecentesco. Nella letteratura musicologica, insieme a Franz Joseph Haydn e Ludwig van Beethoven, costituisce la triade che prende il nome di Prima scuola di Vienna.

Orario di seed e Banda disponibile:
Dalle 14 alle 24: 2MB/s
Seeding fino a 30 Completamenti


Messaggio modificato da leonenero il Apr 23 2017, 11:42 PM

> File Allegato
File Allegato   Mozart - Masters Of Classical Music Vol.1.torrent
Dimensione: 271 mb
Seeders:11
Leechers: 0
Completati: 293
Data ultimo seed: 2017-05-27 21:24:27
Info_hash: 57599007BC5923E47A9C9F4CA477ADFD1AC9A628
Visualizza la lista dei peers
Visualizza i dettagli del torrent

♫ Lossless Crew ♫


Le Mie Releases

Condividere ti rende più grande di quello che sei. Più dai agli altri, più sei in grado di ricevere.
Messaggio PrivatoIndirizzo Email
Top
assamestar
  Inviato il: Apr 21 2017, 05:37 PM
Cita questo messaggio


\"releaser\"
\"100rel\"
\"curcoord\"
\"discoteca\"

Group Icon

Gruppo: Funzionari
Messaggi: 2453
Utente Nr.: 1321998
Iscritto il: 8-February 15



ON AIR!

user posted image

grazie.gif _Omega33_ sposto in all angel1.gif


seeding ok.gif


user posted image

Invito tutti gli amicacci a dare una pigiatina in alto, proprio qui user posted image


O cazzi o poggi!

BASE - Baby Seeding -|- RISC - Rest In Seed Campaign -|- Kill Skype --> Move to Tox -|- Kill WhatsApp --> Move to Telegram or Surespot

Se io do una mela a te e tu dai una pera a me, io me ne andrò via con la tua pera e tu con la mia mela.
Ma se io do un'idea a te e tu dai un'idea a me, allora entrambi andremo via con due idee.
Sharing is a lifestyle!
Messaggio PrivatoIndirizzo Email
Top
sergio fattori
Inviato il: Apr 22 2017, 11:53 AM
Cita questo messaggio



Group Icon

Gruppo: Domiciliati
Messaggi: 191
Utente Nr.: 860170
Iscritto il: 12-December 12



clap.gif grazie.gif ciao.gif
Messaggio PrivatoIndirizzo Email
Top
susitea
Inviato il: Apr 22 2017, 04:33 PM
Cita questo messaggio



Group Icon

Gruppo: Domiciliati
Messaggi: 51
Utente Nr.: 373204
Iscritto il: 25-November 09



grazie
Messaggio PrivatoIndirizzo Email
Top
Utenti totali che stanno leggendo la discussione: 0 (0 Visitatori e 0 Utenti Anonimi)
Gli utenti registrati sono 0 :
 

Opzioni Discussione Rispondi a questa discussioneInizia nuova discussioneAvvia sondaggio

 

Scambio etico - ethic share
 Debian powered site  Nginx powered site  Php 5 powered site  MariaDB powered site  xml rss2.0 compliant  no software patents  no software patents