Tnt village
tntvillage.scambioetico.org · Statuto T.N.T.      Aiuto      Cerca      Utenti      Calendario

Questo sito non utilizza cookies a scopo di tracciamento o di profilazione. L'utilizzo dei cookies ha fini strettamente tecnici.

Sostieni movimentopirati.org

 

  Rispondi a questa discussioneInizia nuova discussione

> The Conflict (1973), [DivX - Eng Mp3 - Sub Eng Ita] Drammatico [CURA] Fede e Religioni
bedwere
  Inviato il: Apr 2 2013, 05:42 PM
Cita questo messaggio



Group Icon

Gruppo: Domiciliati
Messaggi: 79
Utente Nr.: 463282
Iscritto il: 12-June 10




user posted image


THE CONFLICT


user posted image

.: Scheda del Film :.

Titolo originale: Conflict
Nazionalitā: USA
Anno: 1973
Genere: drammatico
Regia: Jack Gold
Produzione: Sidney Glazier Productions
Distribuzione: Quality Special Products (2002) (Canada) (DVD)
Data di uscita: 1973
Cast:Trevor Howard, The Abbot; Martin Sheen, Father Kinsella; Raf Vallone, Father General.

.: Trama :.

In un futuro vicino a noi, la Chiesa cattolica si č adeguata completamente al mondo moderno. Sono stati eliminati tutti i segni esteriori e, con essi, il cristianesimo stesso e` stata rimpiazzato con una nuova religione ecumenica. Rimane invece intatto l'apparato burocratico che deve imporre conformitā alle direttive centrali. Un gruppo di monaci su una remota isola irlandese decide di tornare indietro e rimprende a celebrare la vecchia Messa in latino, attirando folle di fedeli tradizionalisti e l'attenzione dei media. Il padre generale dell'ordine incarica il giovane padre Kinsella di rinormalizzare la situazione sull'isola.

Quando questo film fu trasmesso sulla rete pubblica americana PBS, vi era una scena iniziale con il colloquio tra il padre generale (interpretato da Raf Vallone, che rimane nei crediti) e padre Kinsella. Questa scena č stata tagliata da tutti i DVD di cui sono a conoscenza.

user posted image

.: Immagini :.

user posted image
user posted image
user posted image
user posted image
user posted image
user posted image
user posted image


.: Scheda tecnica del filmato :.

General
Complete name : The_Conflict.avi
Format : AVI
Format/Info : Audio Video Interleave
File size : 575 MiB
Duration : 1h 15mn
Overall bit rate : 1 067 Kbps

Video
ID : 0
Format : MPEG-4 Visual
Format profile : Simple@L1
Format settings, BVOP : No
Format settings, QPel : No
Format settings, GMC : No warppoints
Format settings, Matrix : Default (H.263)
Codec ID : FMP4
Duration : 1h 15mn
Bit rate : 799 Kbps
Width : 720 pixels
Height : 480 pixels
Display aspect ratio : 3:2
Frame rate : 29.970 fps
Standard : NTSC
Color space : YUV
Chroma subsampling : 4:2:0
Bit depth : 8 bits
Scan type : Progressive
Compression mode : Lossy
Bits/(Pixel*Frame) : 0.077
Stream size : 431 MiB (75%)
Writing library : Lavc52.20.1

Audio
ID : 1
Format : AC-3
Format/Info : Audio Coding 3
Format profile : Dolby Digital
Mode extension : CM (complete main)
Codec ID : 2000
Duration : 1h 15mn
Bit rate mode : Constant
Bit rate : 256 Kbps
Channel(s) : 2 channels
Channel positions : Front: L R
Sampling rate : 48.0 KHz
Bit depth : 16 bits
Compression mode : Lossy
Stream size : 138 MiB (24%)
Alignment : Aligned on interleaves
Interleave, duration : 33 ms (1.00 video frame)




.: Note :.

Orario di seed e Banda disponibile: 20kbps per 24 ore su 24


.: Babysitting & Reseed :.


user posted imageuser posted imageuser posted imageuser posted image

Messaggio modificato da bedwere il Apr 11 2013, 04:38 PM

> File Allegato
File Allegato   The_Conflict_1973.torrent
Dimensione: 589 mb
Seeders:0
Leechers: 0
Completati: 314
Data ultimo seed: 2017-07-26 14:34:55
Info_hash: F7F5F095D0CD2689FBFB8314844F55021CD05C2A
Visualizza la lista dei peers
Visualizza i dettagli del torrent

Messaggio PrivatoIndirizzo Email
Top
Maverick_81
Inviato il: Apr 2 2013, 06:47 PM
Cita questo messaggio


\"100rel\"
\"coordinatore\"
\"videoteca\"

Group Icon

Gruppo: Funzionari
Messaggi: 4836
Utente Nr.: 264437
Iscritto il: 2-February 09



grazie.gif bedwere, sposto in release video ok.gif

MOVIMENTO 5 STELLE - NO TAV

"Quel che ci occorre č una volontā unica [...]. Questa sollevazione deve continuare fino a che non saranno prese le misure necessarie per salvare la repubblica" Maximilien de Robespierre

Tutte le mie release sono "RESEED SU RICHIESTA"

le mie release: FILM - DOC - SERIE TV - TV SHOW - E-BOOK - MUSIC - MUSIC VIDEO

i miei progetti: Tom Cruise - Jane Austen
Messaggio Privato
Top
Pirata88
Inviato il: Apr 9 2013, 08:51 AM
Cita questo messaggio


\"100rel\"

Group Icon

Gruppo: Contribuenti
Messaggi: 3730
Utente Nr.: 541984
Iscritto il: 9-January 11



user posted image


HOC HABEO QUODCUMQUE DEDI




Se avete problemi di seed o altro con le mie release mandatemi un MP!!!!!!!

Messaggio Privato
Top
bedwere
Inviato il: Jan 27 2015, 04:35 PM
Cita questo messaggio



Group Icon

Gruppo: Domiciliati
Messaggi: 79
Utente Nr.: 463282
Iscritto il: 12-June 10



Coloro che hanno scaricato questa offerta, saranno forse interessati a questa versione della medesima pellicola, di qualita` superiore e contenente le scene mancanti: The Catholics (1973) ciao.gif

Messaggio modificato da bedwere il Jan 27 2015, 04:35 PM

Messaggio PrivatoIndirizzo Email
Top
Utenti totali che stanno leggendo la discussione: 0 (0 Visitatori e 0 Utenti Anonimi)
Gli utenti registrati sono 0 :
 

Opzioni Discussione Rispondi a questa discussioneInizia nuova discussione

 

Scambio etico - ethic share
 Debian powered site  Nginx powered site  Php 5 powered site  MariaDB powered site  xml rss2.0 compliant  no software patents  no software patents