Tnt village
tntvillage.scambioetico.org · Statuto T.N.T.      Aiuto      Cerca      Utenti      Calendario

Le Vostre donazioni ci consentono di mantenere alta l'efficienza e la sicurezza.

Puoi donare anche utilizzando PostePay, Per versare la tua donazione chiedi il numero di carta

Sostieni movimentopirati.org

 

  Rispondi a questa discussioneInizia nuova discussioneAvvia sondaggio

> David Guetta ft. Akon - Sexy Bitch, [Mpeg4 Eng Vorbis] Progetto David Guetta - [CURA] HOT
oracenelson
  Inviato il: Nov 28 2010, 06:51 PM
Cita questo messaggio


\"1000rel\"
\"curcoord\"
\"babysitter\"

Group Icon

Gruppo: CURA-FC
Messaggi: 13296
Utente Nr.: 209481
Iscritto il: 21-March 08



user posted imageuser posted image




user posted image



Non sono molti gli elementi innovativi di questa canzone, ma poco importa, lo stile di Guetta si fa sentire ed è quello che conta, ritmo trascinante e un video che farete fatica a dimenticare, in cui Guetta e Akon sembrano due ragazzini ricordiamo che il francese va per i 42 e il vocalist americano sta sulla 30ina visto che non si conosce bene la sua vera età. Ma l'età in una condizione come quella del video fatto di ragazze che ballano in costume, di ragazzi che fanno di tutto per entrare ad un party al quale non erano invitati, l'età è davvero l'ultima cosa che conta.

user posted image



Lyrics

Yes i can see her
Keeps on putting her hands on me
Orrr she’s a diva
I could say the same for her leader
They say she low downs
Just a shame i arent a believer

they say she used to slow down
The badest girl around here

She aint nothing like a girl you’ve ever seen before and you cant complain until you’ve banged on her door
I’m trying to find the words to discribe this girl

The way that booty movin i just cant take no more



user posted image




Traduzione

Si, la vedo
Continua a mettermi le mani addosso
O è lei la diva
O èil tizio che la accompagna
Dicono che le piace farlo in maniera disinibita
Peccato che non sono uno che crede così senza vedere
Dicono che le piace farlo in maniera disinibita
La ragazza più cattiva di tutte
Non è come nessun’altra e non te ne puoi lamentare finchè non sei sbattuto sulla sua porta a fare sesso
Cerco di trovare le parole per descriverla
Il modo flussuoso in cui si muove, non ce la faccio



Screenshots

user posted image - user posted image

user posted image - user posted image




General
Complete name : David Guetta ft. Akon - Sexy Bitch.mkv
Format : Matroska
File size : 53.2 MiB
Duration : 3mn 20s
Overall bit rate : 2 228 Kbps
Encoded date : UTC 2009-09-04 06:28:34
Writing application : mkvmerge v2.2.0 ('Turn It On Again') built on Jul 1 2008 15:44:46
Writing library : libebml v0.7.7 + libmatroska v0.8.1
Cover : This video has been downloaded from Vuze.com using Azureus

Video
ID : 1
Format : AVC
Format/Info : Advanced Video Codec
Format profile : Main@L5.1
Format settings, CABAC : Yes
Format settings, ReFrames : 5 frames
Muxing mode : Container profile=Unknown@5.1
Codec ID : V_MPEG4/ISO/AVC
Duration : 3mn 20s
Bit rate : 2 024 Kbps
Nominal bit rate : 2 066 Kbps
Width : 1 280 pixels
Height : 704 pixels
Display aspect ratio : 16:9
Frame rate : 25.000 fps
Resolution : 24 bits
Colorimetry : 4:2:0
Scan type : Progressive
Bits/(Pixel*Frame) : 0.090
Stream size : 48.3 MiB (91%)
Writing library : x264 core 60 r0+892 ad1d7a4
Encoding settings : cabac=1 / ref=5 / deblock=1:0:0 / analyse=0x1:0x131 / me=umh / subme=7 / brdo=0 / mixed_ref=0 / me_range=32 / chroma_me=1 / trellis=1 / 8x8dct=0 / cqm=0 / deadzone=21,11 / chroma_qp_offset=0 / threads=6 / nr=0 / decimate=1 / mbaff=0 / bframes=3 / b_pyramid=1 / b_adapt=1 / b_bias=0 / direct=3 / wpredb=0 / bime=0 / keyint=250 / keyint_min=25 / scenecut=40(pre) / rc=2pass / bitrate=2066 / ratetol=1.0 / rceq='blurCplx^(1-qComp)' / qcomp=1.00 / qpmin=10 / qpmax=51 / qpstep=4 / cplxblur=20.0 / qblur=0.5 / ip_ratio=1.40 / pb_ratio=1.30 / aq=2:1.00

Audio
ID : 2
Format : Vorbis
Format settings, Floor : 1
Codec ID : A_VORBIS
Duration : 3mn 20s
Bit rate mode : Constant
Bit rate : 160 Kbps
Channel(s) : 2 channels
Sampling rate : 44.1 KHz
Stream size : 3.82 MiB (7%)
Writing library : libVorbis 1.2 (UTC 2007-06-22)

user posted image



Orario di seed: circa 08.30 / 22.00
Banda dedicata: 80 Kb/s fino ai primi completati






Messaggio modificato da oracenelson il Nov 28 2010, 08:55 PM

> File Allegato
File Allegato   David Guetta ft. Akon - Sexy Bitch.torrent
Completati: 9445
Dimensione: 55 mb
Leechers: 0
seeders: 2
data ultimo seed: 2014-10-23 05:32:55
info_hash: c9f35c8d518bd27bae37c5f1bdb6eda18880eed8
Tracker: http://tracker.tntvillage.scambioetico.org:2710/announce
Magnet: magnet link
Mostrami i peers di questa rel
Mostrami i dati del torrent

Messaggio Privato
Top
oracenelson
Inviato il: Nov 28 2010, 06:54 PM
Cita questo messaggio


\"1000rel\"
\"curcoord\"
\"babysitter\"

Group Icon

Gruppo: CURA-FC
Messaggi: 13296
Utente Nr.: 209481
Iscritto il: 21-March 08



ho messo le miniature perchè gli screenshots erano troppo grandi.....



SCARICATELO !!!

Messaggio Privato
Top
Eyxe88
Inviato il: Nov 28 2010, 07:11 PM
Cita questo messaggio


\"250rel\"

Group Icon

Gruppo: Domiciliati
Messaggi: 5935
Utente Nr.: 220029
Iscritto il: 4-May 08



Apperò sbav.gif

grazie.gif mille orace e sposto per il piacere di molti biggrin.gif

LE MIE RELEASES

PROGETTO PRIMA VISIONE: PARTECIPA ANCHE TU!

NUOVO PROGETTO TAKASHI MIIKE: SCOPRILO E PARTECIPA!
Messaggio PrivatoIndirizzo Email
Top
irishman
Inviato il: Nov 28 2010, 08:22 PM
Cita questo messaggio


\"100rel\"

Group Icon

Gruppo: Domiciliati
Messaggi: 1005
Utente Nr.: 222981
Iscritto il: 19-May 08



tanta roba questo video...
ce l'ho quindi non lo prendo,
ma una raccomandazione :
se siete deboli di cuore,
NON SCARICATELO!!!! biggrin.gif


Partecipate di più alla vita del forum...non scaricate e stop...
date commenti sul materiale che scaricate,votate ai sondaggi sulle release del mese...insomma FATEVI VIVI!!!
Messaggio PrivatoIndirizzo Email
Top
oracenelson
Inviato il: Dec 26 2010, 10:07 AM
Cita questo messaggio


\"1000rel\"
\"curcoord\"
\"babysitter\"

Group Icon

Gruppo: CURA-FC
Messaggi: 13296
Utente Nr.: 209481
Iscritto il: 21-March 08



user posted image

Messaggio Privato
Top
Utenti totali che stanno leggendo la discussione: 0 (0 Visitatori e 0 Utenti Anonimi)
Gli utenti registrati sono 0 :
 

Opzioni Discussione Rispondi a questa discussioneInizia nuova discussioneAvvia sondaggio

 

Scambio etico - ethic share
 Debian powered site  Nginx powered site  Php 5 powered site  MariaDB powered site  xml rss2.0 compliant  no software patents  no software patents