Tnt village
tntvillage.scambioetico.org · Statuto T.N.T.      Aiuto      Cerca      Utenti      Calendario

Questo sito non utilizza cookies a scopo di tracciamento o di profilazione. L'utilizzo dei cookies ha fini strettamente tecnici.

Sostieni movimentopirati.org

 

  Rispondi a questa discussioneInizia nuova discussioneAvvia sondaggio

> Lost S01e01-25, [BDmux 1080p - H264 - Ita Ac3 Eng Dts - Sub Ita] Mux di TheJohnCena (T7ST)
TheJohnCena
  Inviato il: Aug 11 2017, 02:36 PM
Cita questo messaggio


\"100rel\"

Group Icon

Gruppo: Releaser
Messaggi: 252
Utente Nr.: 896309
Iscritto il: 2-February 13



user posted image



Lost

user posted image

.: Scheda della serie :.

Anno: 200
Genere: Action, Drama, Adventure
Regia: J. J. Abrams, Damon Lindelof e Jeffrey Lieber

Cast: Matthew Fox, Terry O'Quinn, Evangeline Lilly ...

.: Trama :.


48 persone sopravvivono ad un tremendo disastro aereo e si ritrovano dispersi su di un'isola dell'Oceano Pacifico che sembra completamente disabitata. Ognuno di loro ha una sua storia, ognuno di loro nasconde dei segreti. Ma tutti quanti, se vogliono continuare a vivere, debbono collaborare, superare le avversità e le divisioni personali e sperare nel soccorso. Che potrebbe non arrivare mai. La banda di amici, familiari, nemici e stranieri lotta contro l'inclemenza del tempo ed il terreno scosceso. E scopre che anche l'isola nasconde dei segreti, una minaccia incombente, l'urlo di creature misteriose che popolano la giungla e che seminano il panico ed il terrore fra i sopravvissuti.

.: ScreenShot :.


 
user posted image


.: Scheda tecnica :.

 


Format : Matroska
Format version : Version 4 / Version 2
File size : 4.41 GiB
Duration : 42 min 29 s
Overall bit rate : 14.9 Mb/s
Movie name : Lost - S01E01 - Lost (Prima Parte) [Pilot (1)] BDmux 1080p di TheJohnCena [T7ST]
Encoded date : UTC 2017-08-09 23:28:16
Writing application : mkvmerge v12.0.0 ('Trust / Lust') 64bit
Writing library : libebml v1.3.4 + libmatroska v1.4.5
Cover : Yes
Attachments : Cover Art

Video
ID : 1
Format : AVC
Format/Info : Advanced Video Codec
Format profile : High@L4.1
Format settings, CABAC : Yes
Format settings, ReFrames : 4 frames
Codec ID : V_MPEG4/ISO/AVC
Duration : 42 min 20 s
Bit rate : 13.3 Mb/s
Width : 1 920 pixels
Height : 1 080 pixels
Display aspect ratio : 16:9
Frame rate mode : Constant
Frame rate : 23.976 (24000/1001) FPS
Color space : YUV
Chroma subsampling : 4:2:0
Bit depth : 8 bits
Scan type : Progressive
Bits/(Pixel*Frame) : 0.267
Stream size : 3.93 GiB (89%)
Title : Lost - S01E01 - Lost (Prima Parte) [Pilot (1)] BDmux 1080p di TheJohnCena [T7ST]
Writing library : x264 core 67 r1162M f7bfcfa
Encoding settings : cabac=1 / ref=4 / deblock=1:-1:-1 / analyse=0x3:0x113 / me=umh / subme=7 / psy_rd=1.0:0.0 / mixed_ref=1 / me_range=16 / chroma_me=1 / trellis=1 / 8x8dct=1 / cqm=0 / deadzone=21,11 / chroma_qp_offset=-2 / threads=6 / nr=0 / decimate=1 / mbaff=0 / bframes=3 / b_pyramid=1 / b_adapt=1 / b_bias=0 / direct=3 / wpredb=1 / keyint=250 / keyint_min=25 / scenecut=40 / rc=2pass / bitrate=13276 / ratetol=1.0 / qcomp=0.60 / qpmin=10 / qpmax=51 / qpstep=4 / cplxblur=20.0 / qblur=0.5 / ip_ratio=1.40 / pb_ratio=1.30 / aq=1:1.10
Language : English
Default : Yes
Forced : No
Color range : Full

Audio #1
ID : 2
Format : DTS
Format/Info : Digital Theater Systems
Mode : 16
Format settings, Endianness : Big
Codec ID : A_DTS
Duration : 42 min 20 s
Bit rate mode : Constant
Bit rate : 1 509 kb/s
Channel(s) : 6 channels
Channel positions : Front: L C R, Side: L R, LFE
Sampling rate : 48.0 kHz
Frame rate : 93.750 FPS (512 spf)
Bit depth : 24 bits
Compression mode : Lossy
Stream size : 457 MiB (10%)
Language : English
Default : No
Forced : No

Audio #2
ID : 3
Format : E-AC-3
Format/Info : Enhanced Audio Coding 3
Format settings, Endianness : Big
Codec ID : A_EAC3
Duration : 42 min 28 s
Bit rate mode : Constant
Bit rate : 128 kb/s
Channel(s) : 2 channels
Channel positions : Front: L R
Sampling rate : 48.0 kHz
Frame rate : 187.500 FPS (256 spf)
Compression mode : Lossy
Delay relative to video : 1 s 150 ms
Stream size : 38.9 MiB (1%)
Language : Italian
Service kind : Complete Main
Default : Yes
Forced : No

Text #1
ID : 4
Format : UTF-8
Codec ID : S_TEXT/UTF8
Codec ID/Info : UTF-8 Plain Text
Duration : 15 s 683 ms
Bit rate : 68 b/s
Count of elements : 4
Stream size : 135 Bytes (0%)
Title : Forced
Language : Italian
Default : Yes
Forced : Yes

Text #2
ID : 5
Format : UTF-8
Codec ID : S_TEXT/UTF8
Codec ID/Info : UTF-8 Plain Text
Duration : 38 min 49 s
Bit rate : 32 b/s
Count of elements : 287
Stream size : 9.11 KiB (0%)
Language : Italian
Default : No
Forced : No



.: Note :.

Orario di seed e Banda disponibile:
Seedbox 100 H24 fino a 15 completi o esaurimento disco

Per questa release cito Richard Benson, GRAZIEEE GIANNIIIIII!
user posted image
In realtà non c'è nessun Gianni ma volevo citare R.B.


Messaggio modificato da AliceTNT il Aug 11 2017, 03:00 PM

> File Allegato
File Allegato   Lost S01e01-25.torrent
Dimensione: 115627 mb
Seeders:4
Leechers: 13
Completati: 52
Data ultimo seed: 2017-08-22 03:28:35
Info_hash: 44617FBDEF0505865329E2B5F370E40C23854DA4
Visualizza la lista dei peers
Visualizza i dettagli del torrent

Release a breve [1080p]:
Lost | Under the Dome | Soul Eater | Bates Motel [30/50] | New Girl [49/138]

PER RESEED SI PREGA DI CONTATTARE VIA MP

Ultimamento tendo ad essere piuttosto sbadato, se notate qualche errore/malfunzionamento/desync vi prego di segnalarlo tempestivamente via MP, in modo tale da poter fare dei FIX prima di archiviare il materiale necessario
Messaggio PrivatoIndirizzo Email
Top
TheJohnCena
Inviato il: Aug 11 2017, 02:41 PM
Cita questo messaggio


\"100rel\"

Group Icon

Gruppo: Releaser
Messaggi: 252
Utente Nr.: 896309
Iscritto il: 2-February 13



Ho il materiale necessario per tutte le stagioni, man mano cercherò di portarvi tutto il cofanetto.
La qualità è questa e non intendo fare encode o strozzature. Sono circa 100GB/stagione e resterò il seed più tempo possibile

Release a breve [1080p]:
Lost | Under the Dome | Soul Eater | Bates Motel [30/50] | New Girl [49/138]

PER RESEED SI PREGA DI CONTATTARE VIA MP

Ultimamento tendo ad essere piuttosto sbadato, se notate qualche errore/malfunzionamento/desync vi prego di segnalarlo tempestivamente via MP, in modo tale da poter fare dei FIX prima di archiviare il materiale necessario
Messaggio PrivatoIndirizzo Email
Top
AliceTNT
Inviato il: Aug 11 2017, 03:01 PM
Cita questo messaggio


\"releaser\"
\"100rel\"
\"curcoord\"
\"contribuente\"
\"tnttv\"

Group Icon

Gruppo: Funzionari
Messaggi: 7127
Utente Nr.: 919317
Iscritto il: 9-March 13



user posted image

Messaggio PrivatoIndirizzo Email
Top
andromeda1968
Inviato il: Aug 11 2017, 05:32 PM
Cita questo messaggio



Group Icon

Gruppo: Domiciliati
Messaggi: 125
Utente Nr.: 211840
Iscritto il: 30-March 08



grazie...fantastico
Messaggio PrivatoIndirizzo Email
Top
madmax67
Inviato il: Aug 11 2017, 09:50 PM
Cita questo messaggio



Group Icon

Gruppo: Domiciliati
Messaggi: 16
Utente Nr.: 693659
Iscritto il: 21-February 12



DA VERO CAMPIONE !!!
GRAZIE
Messaggio PrivatoIndirizzo Email
Top
uhz314
Inviato il: Aug 12 2017, 11:38 PM
Cita questo messaggio



Group Icon

Gruppo: Domiciliati
Messaggi: 1
Utente Nr.: 270017
Iscritto il: 10-March 09



Great Job Man, se riesci nel tempo a ripparli dai DVD, ti quoto in borsa lol.gif ciao.gif grazie.gif [B]
Messaggio PrivatoIndirizzo Email
Top
TheJohnCena
Inviato il: Aug 13 2017, 08:55 AM
Cita questo messaggio


\"100rel\"

Group Icon

Gruppo: Releaser
Messaggi: 252
Utente Nr.: 896309
Iscritto il: 2-February 13



QUOTE (uhz314 @ Aug 12 2017, 11:38 PM)
Great Job Man, se riesci nel tempo a ripparli dai DVD, ti quoto in borsa lol.gif ciao.gif grazie.gif [B]

La qualità dei Bluray è nettamente superiore, perché uno dovrebbe usare i DVD? hmm.gif
Poi su TNT ci sono già i DVDRip da qualche annetto

Release a breve [1080p]:
Lost | Under the Dome | Soul Eater | Bates Motel [30/50] | New Girl [49/138]

PER RESEED SI PREGA DI CONTATTARE VIA MP

Ultimamento tendo ad essere piuttosto sbadato, se notate qualche errore/malfunzionamento/desync vi prego di segnalarlo tempestivamente via MP, in modo tale da poter fare dei FIX prima di archiviare il materiale necessario
Messaggio PrivatoIndirizzo Email
Top
lucav2
Inviato il: Aug 15 2017, 09:23 AM
Cita questo messaggio



Group Icon

Gruppo: Domiciliati
Messaggi: 2
Utente Nr.: 1245630
Iscritto il: 22-October 14



Salve,

Prima di tutto ti ringrazio per aver messo a disposizione questo capolavoro di serie tv. La cercavo da tanto tempo e finalmente qualcuno l'ha messa in seed. Hai intenzione di postare anche le altre stagioni? Dimmi di si ti prego biggrin.gif biggrin.gif pray[1].gif pray[1].gif
Messaggio PrivatoIndirizzo Email
Top
TheJohnCena
Inviato il: Aug 16 2017, 12:00 PM
Cita questo messaggio


\"100rel\"

Group Icon

Gruppo: Releaser
Messaggi: 252
Utente Nr.: 896309
Iscritto il: 2-February 13



QUOTE (lucav2 @ Aug 15 2017, 09:23 AM)
Salve,

Prima di tutto ti ringrazio per aver messo a disposizione questo capolavoro di serie tv. La cercavo da tanto tempo e finalmente qualcuno l'ha messa in seed. Hai intenzione di postare anche le altre stagioni? Dimmi di si ti prego biggrin.gif biggrin.gif pray[1].gif pray[1].gif

Come puoi osservare dal primo post... La risposta è assolutamente sì!

Release a breve [1080p]:
Lost | Under the Dome | Soul Eater | Bates Motel [30/50] | New Girl [49/138]

PER RESEED SI PREGA DI CONTATTARE VIA MP

Ultimamento tendo ad essere piuttosto sbadato, se notate qualche errore/malfunzionamento/desync vi prego di segnalarlo tempestivamente via MP, in modo tale da poter fare dei FIX prima di archiviare il materiale necessario
Messaggio PrivatoIndirizzo Email
Top
lucav2
Inviato il: Aug 17 2017, 07:15 AM
Cita questo messaggio



Group Icon

Gruppo: Domiciliati
Messaggi: 2
Utente Nr.: 1245630
Iscritto il: 22-October 14



Bene... :-D Attendo con ansia le altre stagioni allora :-D
Messaggio PrivatoIndirizzo Email
Top
Utenti totali che stanno leggendo la discussione: 1 (1 Visitatori e 0 Utenti Anonimi)
Gli utenti registrati sono 0 :
 

Opzioni Discussione Rispondi a questa discussioneInizia nuova discussioneAvvia sondaggio

 

Scambio etico - ethic share
 Debian powered site  Nginx powered site  Php 5 powered site  MariaDB powered site  xml rss2.0 compliant  no software patents  no software patents