Tnt village
In memoria di Aaron
8/11/1986 - 11/01/2013
tntvillage.scambioetico.org · Statuto T.N.T.      Aiuto      Cerca      Utenti      Calendario

Questo sito non utilizza cookies a scopo di tracciamento o di profilazione. L'utilizzo dei cookies ha fini strettamente tecnici.

 

  Reply to this topicStart new topicStart Poll

> Various Artists - Top of The Pops - 1968 (2007), [Flac] Pop - Test&Copy + Cue (Lossless Crew)
caraibbo
  Inviato il: Feb 10 2019, 11:56 AM
Quote Post


\"releaser\"
\"500rel\"

Group Icon

Gruppo: Contribuenti
Messaggi: 1639
Utente Nr.: 170584
Iscritto il: 19-November 07



user posted image



user posted image


user posted image



user posted image


VARIOUS ARTISTS

-

TOP OF THE POPS - 1968




user posted image



.: Dati Album :.


Titolo: VA - Top Of The Pops 1968
Anno: 2007
Genere: Pop
Etichetta: Emi
Formato: EAC V1.0 beta 1 (secure mode) | FLAC+CUE+LOG+COVERS| 437 Mb



user posted image


1. The Union Gap feat. Gary Puckett - Young Girl 3:02
2. Dusty Springfield - Son-Of-A Preacher Man 2:24
3. Herman's Hermits - Something's Happening 3:09
4. Cilla Black - Step Inside Love 2:19
5. Amen Corner - Bend Me Shape Me 2:36
6. Tommy James And The Shondells - Mony Mony 2:51
7. The Crazy World Of Arthur Brown - Fire 2:56
8. Sly And The Family Stone - Dance To The Music 2:58
9. The Love Affair - Everlasting Love 2:58
10. Lulu - I'm A Tiger 2:44
11. The Hollies - Jennifer Eccles 2:55
12. Canned Heat - On The Road Again 3:11
13. Donovan - The Hurdy Gurdy Man 3:16
14. The Lemon Pipers - Green Tambourine 2:23
15. Don Partridge - Rosie 2:15
16. Dave Dee, Dozy, Beaky, Mick & Tich - The Legend Of Xanadu 3:35
17. The Bedrocks - Ob-la-di Ob-la-da 3:00
18. The Bonzo Dog Doo Dah Band - I'm The Urban Spaceman 2:23
19. The Scaffold - Lily The Pink 4:18
20. The Beach Boys - Do It Again 2:16
21. Bobby Goldsboro - Honey 3:57
22. Malcolm Roberts - May I Have The Next Dream With You 2:45
23. Des O'Connor - I Pretend 2:47
24. Solomon King - She Wears My Ring 3:12
25. Fleetwood Mac - Albatross 3:08


.: Recensione :.


Questa è una serie favolosa che fa parte della serie TOTP, questo è il 1968 e...continua!

Top of the Pops 1968 è un discreto disco singolo che mette in evidenza 25 singoli pop usciti nel Regno Unito quell'anno. Insieme alle versioni originali dei classici della radio provati e veri di Beach Boys, Dusty Springfield e Sly & the Family Stone sono inclusioni meno ovvie di Don Partridge, Scaffold, Malcolm Roberts e Herman's Hermits.


.: Dati Tecnici :.


 Log File


X Lossless Decoder version 20090829 (109.6)

XLD extraction logfile from 2009-09-22 19:22:16 +0100

Various Artists / TOTP-1968

Used drive : HL-DT-ST DVDRAM GP08LU10 (revision KE01)

Use cdparanoia mode : YES (CDParanoia III 10.2 engine)
Disable audio cache : OK for the drive with cache less than 2750KB
Make use of C2 pointers : NO
Read offset correction : 667
Max retry count : 100

TOC of the extracted CD
Track | Start | Length | Start sector | End sector
---------------------------------------------------------
1 | 00:00:00 | 03:03:46 | 0 | 13770
2 | 03:03:46 | 02:25:14 | 13771 | 24659
3 | 05:28:60 | 03:09:23 | 24660 | 38857
4 | 08:38:08 | 02:19:61 | 38858 | 49343
5 | 10:57:69 | 02:37:21 | 49344 | 61139
6 | 13:35:15 | 02:52:11 | 61140 | 74050
7 | 16:27:26 | 02:56:61 | 74051 | 87311
8 | 19:24:12 | 02:59:19 | 87312 | 100755
9 | 22:23:31 | 02:58:44 | 100756 | 114149
10 | 25:22:00 | 02:44:46 | 114150 | 126495
11 | 28:06:46 | 02:55:43 | 126496 | 139663
12 | 31:02:14 | 03:11:59 | 139664 | 154047
13 | 34:13:73 | 03:16:27 | 154048 | 168774
14 | 37:30:25 | 02:23:56 | 168775 | 179555
15 | 39:54:06 | 02:15:68 | 179556 | 189748
16 | 42:09:74 | 03:36:14 | 189749 | 205962
17 | 45:46:13 | 03:01:01 | 205963 | 219538
18 | 48:47:14 | 02:23:22 | 219539 | 230285
19 | 51:10:36 | 04:19:04 | 230286 | 249714
20 | 55:29:40 | 02:16:22 | 249715 | 259936
21 | 57:45:62 | 03:57:44 | 259937 | 277755
22 | 61:43:31 | 02:46:13 | 277756 | 290218
23 | 64:29:44 | 02:48:15 | 290219 | 302833
24 | 67:17:59 | 03:12:56 | 302834 | 317289
25 | 70:30:40 | 03:09:71 | 317290 | 331535

List of alternate offset correction values
# | Absolute | Relative | Confidence
------------------------------------------
1 | 1337 | 670 | 1

All Tracks
Album gain : -6.53 dB
Peak : 1.000000

Track 01
Filename : /Users/Fiddy/Music/New Rips/Top Of The Pops 1964-2006 [43CDs] [2280872] (FLAC)/TOTP-1968-01 Gary Pucket & The Union Gap - Young Girl.flac

Track gain : -7.19 dB
Peak : 0.966797
CRC32 hash (test run) : 4BA5FF5A
CRC32 hash : 4BA5FF5A
CRC32 hash (skip zero) : 1519F7BF
AccurateRip signature : 22C78703
->Accurately ripped! (confidence 1)
(matched with the different offset correction value;
calculated using an additional offset of 670;
the signature after correction is: D71EC151)
Statistics
Read error : 0
Skipped (treated as error) : 0
Edge jitter error (maybe fixed) : 0
Atom jitter error (maybe fixed) : 0
Drift error (maybe fixed) : 0
Dropped bytes error (maybe fixed) : 0
Duplicated bytes error (maybe fixed) : 0
Inconsistency in error sectors : 0

Track 02
Filename : /Users/Fiddy/Music/New Rips/Top Of The Pops 1964-2006 [43CDs] [2280872] (FLAC)/TOTP-1968-02 Dusty Springfield - Son Of A Preacher Man.flac

Track gain : -6.14 dB
Peak : 1.000000
CRC32 hash (test run) : 473DDA18
CRC32 hash : 473DDA18
CRC32 hash (skip zero) : 6F1694CF
AccurateRip signature : E86F5B75
->Accurately ripped! (confidence 1)
(matched with the different offset correction value;
calculated using an additional offset of 670;
the signature after correction is: E3C29F1B)
Statistics
Read error : 0
Skipped (treated as error) : 0
Edge jitter error (maybe fixed) : 0
Atom jitter error (maybe fixed) : 1
Drift error (maybe fixed) : 0
Dropped bytes error (maybe fixed) : 0
Duplicated bytes error (maybe fixed) : 0
Inconsistency in error sectors : 0

Track 03
Filename : /Users/Fiddy/Music/New Rips/Top Of The Pops 1964-2006 [43CDs] [2280872] (FLAC)/TOTP-1968-03 Herman's Hermits - Something Is Happening.flac

Track gain : -5.74 dB
Peak : 1.000000
CRC32 hash (test run) : 72E1C98B
CRC32 hash : 72E1C98B
CRC32 hash (skip zero) : F8F46A03
AccurateRip signature : E8392A01
->Accurately ripped! (confidence 1)
(matched with the different offset correction value;
calculated using an additional offset of 670;
the signature after correction is: 3E9C9C63)
Statistics
Read error : 0
Skipped (treated as error) : 0
Edge jitter error (maybe fixed) : 0
Atom jitter error (maybe fixed) : 0
Drift error (maybe fixed) : 0
Dropped bytes error (maybe fixed) : 0
Duplicated bytes error (maybe fixed) : 0
Inconsistency in error sectors : 0

Track 04
Filename : /Users/Fiddy/Music/New Rips/Top Of The Pops 1964-2006 [43CDs] [2280872] (FLAC)/TOTP-1968-04 Cilla Black - Step Inside Love.flac

Track gain : -9.97 dB
Peak : 1.000000
CRC32 hash (test run) : 9CDF6443
CRC32 hash : 9CDF6443
CRC32 hash (skip zero) : E40640FA
AccurateRip signature : 2253BB58
->Accurately ripped! (confidence 1)
(matched with the different offset correction value;
calculated using an additional offset of 670;
the signature after correction is: 6A3745F8)
Statistics
Read error : 0
Skipped (treated as error) : 0
Edge jitter error (maybe fixed) : 0
Atom jitter error (maybe fixed) : 0
Drift error (maybe fixed) : 0
Dropped bytes error (maybe fixed) : 0
Duplicated bytes error (maybe fixed) : 0
Inconsistency in error sectors : 0

Track 05
Filename : /Users/Fiddy/Music/New Rips/Top Of The Pops 1964-2006 [43CDs] [2280872] (FLAC)/TOTP-1968-05 Amen Corner - Bend Me Shape Me.flac

Track gain : -5.23 dB
Peak : 0.899231
CRC32 hash (test run) : CABDC721
CRC32 hash : CABDC721
CRC32 hash (skip zero) : FD46DE34
AccurateRip signature : 9AB0B185
->Accurately ripped! (confidence 1)
(matched with the different offset correction value;
calculated using an additional offset of 670;
the signature after correction is: 524A77F3)
Statistics
Read error : 0
Skipped (treated as error) : 0
Edge jitter error (maybe fixed) : 0
Atom jitter error (maybe fixed) : 0
Drift error (maybe fixed) : 0
Dropped bytes error (maybe fixed) : 0
Duplicated bytes error (maybe fixed) : 0
Inconsistency in error sectors : 0

Track 06
Filename : /Users/Fiddy/Music/New Rips/Top Of The Pops 1964-2006 [43CDs] [2280872] (FLAC)/TOTP-1968-06 Tommy James & The Shondells - Mony Mony.flac

Track gain : -7.03 dB
Peak : 1.000000
CRC32 hash (test run) : C3C0DC97
CRC32 hash : C3C0DC97
CRC32 hash (skip zero) : 90ECA1A8
AccurateRip signature : 8338B9FE
->Accurately ripped! (confidence 1)
(matched with the different offset correction value;
calculated using an additional offset of 670;
the signature after correction is: 67853280)
Statistics
Read error : 0
Skipped (treated as error) : 0
Edge jitter error (maybe fixed) : 0
Atom jitter error (maybe fixed) : 0
Drift error (maybe fixed) : 0
Dropped bytes error (maybe fixed) : 0
Duplicated bytes error (maybe fixed) : 0
Inconsistency in error sectors : 0

Track 07
Filename : /Users/Fiddy/Music/New Rips/Top Of The Pops 1964-2006 [43CDs] [2280872] (FLAC)/TOTP-1968-07 The Crazy World of Arthur Brown - Fire.flac

Track gain : -5.52 dB
Peak : 0.737488
CRC32 hash (test run) : F5E79239
CRC32 hash : F5E79239
CRC32 hash (skip zero) : 9407D88B
AccurateRip signature : EB78DD13
->Accurately ripped! (confidence 1)
(matched with the different offset correction value;
calculated using an additional offset of 670;
the signature after correction is: B7599231)
Statistics
Read error : 0
Skipped (treated as error) : 0
Edge jitter error (maybe fixed) : 0
Atom jitter error (maybe fixed) : 0
Drift error (maybe fixed) : 0
Dropped bytes error (maybe fixed) : 0
Duplicated bytes error (maybe fixed) : 0
Inconsistency in error sectors : 0

Track 08
Filename : /Users/Fiddy/Music/New Rips/Top Of The Pops 1964-2006 [43CDs] [2280872] (FLAC)/TOTP-1968-08 Sly & The Family Stone - Dance To The Music.flac

Track gain : -7.06 dB
Peak : 1.000000
CRC32 hash (test run) : D17E1D3D
CRC32 hash : D17E1D3D
CRC32 hash (skip zero) : 9F41E9DB
AccurateRip signature : 04FAB44B
->Accurately ripped! (confidence 1)
(matched with the different offset correction value;
calculated using an additional offset of 670;
the signature after correction is: C0585447)
Statistics
Read error : 0
Skipped (treated as error) : 0
Edge jitter error (maybe fixed) : 0
Atom jitter error (maybe fixed) : 0
Drift error (maybe fixed) : 0
Dropped bytes error (maybe fixed) : 0
Duplicated bytes error (maybe fixed) : 0
Inconsistency in error sectors : 0

Track 09
Filename : /Users/Fiddy/Music/New Rips/Top Of The Pops 1964-2006 [43CDs] [2280872] (FLAC)/TOTP-1968-09 Love Affair - Everlasting Love.flac

Track gain : -7.42 dB
Peak : 0.963440
CRC32 hash (test run) : 31DC5DFF
CRC32 hash : 31DC5DFF
CRC32 hash (skip zero) : 6857B1A7
AccurateRip signature : 8143E4C5
->Accurately ripped! (confidence 1)
(matched with the different offset correction value;
calculated using an additional offset of 670;
the signature after correction is: 58280E5B)
Statistics
Read error : 0
Skipped (treated as error) : 0
Edge jitter error (maybe fixed) : 1
Atom jitter error (maybe fixed) : 1
Drift error (maybe fixed) : 0
Dropped bytes error (maybe fixed) : 0
Duplicated bytes error (maybe fixed) : 0
Inconsistency in error sectors : 0

Track 10
Filename : /Users/Fiddy/Music/New Rips/Top Of The Pops 1964-2006 [43CDs] [2280872] (FLAC)/TOTP-1968-10 Lulu - I'm A Tiger.flac

Track gain : -5.14 dB
Peak : 0.915253
CRC32 hash (test run) : 12F0DBB8
CRC32 hash : 12F0DBB8
CRC32 hash (skip zero) : 48BD0965
AccurateRip signature : 101A1F89
->Accurately ripped! (confidence 1)
(matched with the different offset correction value;
calculated using an additional offset of 670;
the signature after correction is: E1C37455)
Statistics
Read error : 0
Skipped (treated as error) : 0
Edge jitter error (maybe fixed) : 0
Atom jitter error (maybe fixed) : 0
Drift error (maybe fixed) : 0
Dropped bytes error (maybe fixed) : 0
Duplicated bytes error (maybe fixed) : 0
Inconsistency in error sectors : 0

Track 11
Filename : /Users/Fiddy/Music/New Rips/Top Of The Pops 1964-2006 [43CDs] [2280872] (FLAC)/TOTP-1968-11 The Hollies - Jennifer Eccles.flac

Track gain : -5.59 dB
Peak : 1.000000
CRC32 hash (test run) : 723727A0
CRC32 hash : 723727A0
CRC32 hash (skip zero) : 02B5BC78
AccurateRip signature : 66225700
->Accurately ripped! (confidence 1)
(matched with the different offset correction value;
calculated using an additional offset of 670;
the signature after correction is: 8D55C646)
Statistics
Read error : 0
Skipped (treated as error) : 0
Edge jitter error (maybe fixed) : 0
Atom jitter error (maybe fixed) : 0
Drift error (maybe fixed) : 0
Dropped bytes error (maybe fixed) : 0
Duplicated bytes error (maybe fixed) : 0
Inconsistency in error sectors : 0

Track 12
Filename : /Users/Fiddy/Music/New Rips/Top Of The Pops 1964-2006 [43CDs] [2280872] (FLAC)/TOTP-1968-12 Canned Heat - On The Road Again.flac

Track gain : -5.22 dB
Peak : 0.910614
CRC32 hash (test run) : BBA2AC1B
CRC32 hash : BBA2AC1B
CRC32 hash (skip zero) : BABDC420
AccurateRip signature : 3F50F6F0
->Accurately ripped! (confidence 1)
(matched with the different offset correction value;
calculated using an additional offset of 670;
the signature after correction is: 4EB4452E)
Statistics
Read error : 0
Skipped (treated as error) : 0
Edge jitter error (maybe fixed) : 0
Atom jitter error (maybe fixed) : 1
Drift error (maybe fixed) : 0
Dropped bytes error (maybe fixed) : 0
Duplicated bytes error (maybe fixed) : 0
Inconsistency in error sectors : 0

Track 13
Filename : /Users/Fiddy/Music/New Rips/Top Of The Pops 1964-2006 [43CDs] [2280872] (FLAC)/TOTP-1968-13 Donovan - Hurdy Gurdy Man.flac

Track gain : -6.07 dB
Peak : 1.000000
CRC32 hash (test run) : 129A08E2
CRC32 hash : 129A08E2
CRC32 hash (skip zero) : 20905420
AccurateRip signature : 8254CC06
->Accurately ripped! (confidence 1)
(matched with the different offset correction value;
calculated using an additional offset of 670;
the signature after correction is: A7EEAC16)
Statistics
Read error : 0
Skipped (treated as error) : 0
Edge jitter error (maybe fixed) : 0
Atom jitter error (maybe fixed) : 0
Drift error (maybe fixed) : 0
Dropped bytes error (maybe fixed) : 0
Duplicated bytes error (maybe fixed) : 0
Inconsistency in error sectors : 0

Track 14
Filename : /Users/Fiddy/Music/New Rips/Top Of The Pops 1964-2006 [43CDs] [2280872] (FLAC)/TOTP-1968-14 The Lemon Pipers - Green Tambourine.flac

Track gain : -7.51 dB
Peak : 0.839142
CRC32 hash (test run) : 793F53D8
CRC32 hash : 793F53D8
CRC32 hash (skip zero) : D8B39DD3
AccurateRip signature : 1347356A
->Accurately ripped! (confidence 1)
(matched with the different offset correction value;
calculated using an additional offset of 670;
the signature after correction is: B58FBCD2)
Statistics
Read error : 0
Skipped (treated as error) : 0
Edge jitter error (maybe fixed) : 0
Atom jitter error (maybe fixed) : 1
Drift error (maybe fixed) : 0
Dropped bytes error (maybe fixed) : 0
Duplicated bytes error (maybe fixed) : 0
Inconsistency in error sectors : 0

Track 15
Filename : /Users/Fiddy/Music/New Rips/Top Of The Pops 1964-2006 [43CDs] [2280872] (FLAC)/TOTP-1968-15 Don Partridge - Rosie.flac

Track gain : -7.53 dB
Peak : 1.000000
CRC32 hash (test run) : C5A6C7EA
CRC32 hash : C5A6C7EA
CRC32 hash (skip zero) : 396A945B
AccurateRip signature : B63A5AD6
->Accurately ripped! (confidence 1)
(matched with the different offset correction value;
calculated using an additional offset of 670;
the signature after correction is: 015D89B2)
Statistics
Read error : 0
Skipped (treated as error) : 0
Edge jitter error (maybe fixed) : 0
Atom jitter error (maybe fixed) : 0
Drift error (maybe fixed) : 0
Dropped bytes error (maybe fixed) : 0
Duplicated bytes error (maybe fixed) : 0
Inconsistency in error sectors : 0

Track 16
Filename : /Users/Fiddy/Music/New Rips/Top Of The Pops 1964-2006 [43CDs] [2280872] (FLAC)/TOTP-1968-16 Dave Dee, Dozy, Beaky, Mick & Tich - The Legend Of Xanadu.flac

Track gain : -6.44 dB
Peak : 0.958313
CRC32 hash (test run) : 522A6C01
CRC32 hash : 522A6C01
CRC32 hash (skip zero) : B2D666A2
AccurateRip signature : 5D8CF3F2
->Accurately ripped! (confidence 1)
(matched with the different offset correction value;
calculated using an additional offset of 670;
the signature after correction is: 66378AE0)
Statistics
Read error : 0
Skipped (treated as error) : 0
Edge jitter error (maybe fixed) : 0
Atom jitter error (maybe fixed) : 0
Drift error (maybe fixed) : 0
Dropped bytes error (maybe fixed) : 0
Duplicated bytes error (maybe fixed) : 0
Inconsistency in error sectors : 0

Track 17
Filename : /Users/Fiddy/Music/New Rips/Top Of The Pops 1964-2006 [43CDs] [2280872] (FLAC)/TOTP-1968-17 The Bedrocks - Ob-La-Do Ob-La-Da.flac

Track gain : -5.67 dB
Peak : 0.928040
CRC32 hash (test run) : 5B9853B2
CRC32 hash : 5B9853B2
CRC32 hash (skip zero) : 3CCE1A50
AccurateRip signature : A691570D
->Accurately ripped! (confidence 1)
(matched with the different offset correction value;
calculated using an additional offset of 670;
the signature after correction is: D7DD6253)
Statistics
Read error : 0
Skipped (treated as error) : 0
Edge jitter error (maybe fixed) : 0
Atom jitter error (maybe fixed) : 1
Drift error (maybe fixed) : 0
Dropped bytes error (maybe fixed) : 0
Duplicated bytes error (maybe fixed) : 0
Inconsistency in error sectors : 0

Track 18
Filename : /Users/Fiddy/Music/New Rips/Top Of The Pops 1964-2006 [43CDs] [2280872] (FLAC)/TOTP-1968-18 Bonzo Dog Doo-Dah Band - I'm The Urban Spaceman.flac

Track gain : -5.49 dB
Peak : 0.938934
CRC32 hash (test run) : 93865C64
CRC32 hash : 93865C64
CRC32 hash (skip zero) : CDB3AB59
AccurateRip signature : E4C1633C
->Accurately ripped! (confidence 1)
(matched with the different offset correction value;
calculated using an additional offset of 670;
the signature after correction is: D929EE52)
Statistics
Read error : 0
Skipped (treated as error) : 0
Edge jitter error (maybe fixed) : 0
Atom jitter error (maybe fixed) : 0
Drift error (maybe fixed) : 0
Dropped bytes error (maybe fixed) : 0
Duplicated bytes error (maybe fixed) : 0
Inconsistency in error sectors : 0

Track 19
Filename : /Users/Fiddy/Music/New Rips/Top Of The Pops 1964-2006 [43CDs] [2280872] (FLAC)/TOTP-1968-19 The Scaffold - Lily The Pink.flac

Track gain : -5.05 dB
Peak : 0.985657
CRC32 hash (test run) : 00E291F6
CRC32 hash : 00E291F6
CRC32 hash (skip zero) : 11DF7DA0
AccurateRip signature : F5B61F25
->Accurately ripped! (confidence 1)
(matched with the different offset correction value;
calculated using an additional offset of 670;
the signature after correction is: 46AF3A61)
Statistics
Read error : 0
Skipped (treated as error) : 0
Edge jitter error (maybe fixed) : 0
Atom jitter error (maybe fixed) : 1
Drift error (maybe fixed) : 0
Dropped bytes error (maybe fixed) : 0
Duplicated bytes error (maybe fixed) : 0
Inconsistency in error sectors : 0

Track 20
Filename : /Users/Fiddy/Music/New Rips/Top Of The Pops 1964-2006 [43CDs] [2280872] (FLAC)/TOTP-1968-20 The Beach Boys - Do It Again.flac

Track gain : -8.50 dB
Peak : 0.888885
CRC32 hash (test run) : AE9B2CD3
CRC32 hash : AE9B2CD3
CRC32 hash (skip zero) : 8F1221F4
AccurateRip signature : 4A4560FF
->Accurately ripped! (confidence 1)
(matched with the different offset correction value;
calculated using an additional offset of 670;
the signature after correction is: 3B510E99)
Statistics
Read error : 0
Skipped (treated as error) : 0
Edge jitter error (maybe fixed) : 0
Atom jitter error (maybe fixed) : 2
Drift error (maybe fixed) : 0
Dropped bytes error (maybe fixed) : 0
Duplicated bytes error (maybe fixed) : 0
Inconsistency in error sectors : 0

Track 21
Filename : /Users/Fiddy/Music/New Rips/Top Of The Pops 1964-2006 [43CDs] [2280872] (FLAC)/TOTP-1968-21 Bobby Goldsboro - Honey.flac

Track gain : -3.94 dB
Peak : 0.712524
CRC32 hash (test run) : BF9E2BD1
CRC32 hash : BF9E2BD1
CRC32 hash (skip zero) : 4CF2D6BB
AccurateRip signature : 67A0DDA2
->Accurately ripped! (confidence 1)
(matched with the different offset correction value;
calculated using an additional offset of 670;
the signature after correction is: 40E533D2)
Statistics
Read error : 0
Skipped (treated as error) : 0
Edge jitter error (maybe fixed) : 0
Atom jitter error (maybe fixed) : 1
Drift error (maybe fixed) : 0
Dropped bytes error (maybe fixed) : 0
Duplicated bytes error (maybe fixed) : 0
Inconsistency in error sectors : 0

Track 22
Filename : /Users/Fiddy/Music/New Rips/Top Of The Pops 1964-2006 [43CDs] [2280872] (FLAC)/TOTP-1968-22 Malcolm Roberts - May I Have The Next Dream With You.flac

Track gain : -5.72 dB
Peak : 0.875305
CRC32 hash (test run) : C60900FD
CRC32 hash : C60900FD
CRC32 hash (skip zero) : 28F0FE9C
AccurateRip signature : 8BCA4E35
->Accurately ripped! (confidence 1)
(matched with the different offset correction value;
calculated using an additional offset of 670;
the signature after correction is: 7D31544D)
Statistics
Read error : 0
Skipped (treated as error) : 0
Edge jitter error (maybe fixed) : 0
Atom jitter error (maybe fixed) : 0
Drift error (maybe fixed) : 0
Dropped bytes error (maybe fixed) : 0
Duplicated bytes error (maybe fixed) : 0
Inconsistency in error sectors : 0

Track 23
Filename : /Users/Fiddy/Music/New Rips/Top Of The Pops 1964-2006 [43CDs] [2280872] (FLAC)/TOTP-1968-23 Des O'Connor - I Pretend.flac

Track gain : -5.20 dB
Peak : 0.839142
CRC32 hash (test run) : AAB02598
CRC32 hash : AAB02598
CRC32 hash (skip zero) : 44FE7262
AccurateRip signature : 313C1FD6
->Accurately ripped! (confidence 1)
(matched with the different offset correction value;
calculated using an additional offset of 670;
the signature after correction is: 4DF15768)
Statistics
Read error : 0
Skipped (treated as error) : 0
Edge jitter error (maybe fixed) : 0
Atom jitter error (maybe fixed) : 0
Drift error (maybe fixed) : 0
Dropped bytes error (maybe fixed) : 0
Duplicated bytes error (maybe fixed) : 0
Inconsistency in error sectors : 0

Track 24
Filename : /Users/Fiddy/Music/New Rips/Top Of The Pops 1964-2006 [43CDs] [2280872] (FLAC)/TOTP-1968-24 Solomon King - She Wears My Ring.flac

Track gain : -7.50 dB
Peak : 0.858704
CRC32 hash (test run) : 2B0E4C69
CRC32 hash : 2B0E4C69
CRC32 hash (skip zero) : 68680FA7
AccurateRip signature : 42C67752
->Accurately ripped! (confidence 1)
(matched with the different offset correction value;
calculated using an additional offset of 670;
the signature after correction is: 091EC7D6)
Statistics
Read error : 0
Skipped (treated as error) : 0
Edge jitter error (maybe fixed) : 0
Atom jitter error (maybe fixed) : 0
Drift error (maybe fixed) : 0
Dropped bytes error (maybe fixed) : 0
Duplicated bytes error (maybe fixed) : 0
Inconsistency in error sectors : 0

Track 25
Filename : /Users/Fiddy/Music/New Rips/Top Of The Pops 1964-2006 [43CDs] [2280872] (FLAC)/TOTP-1968-25 Fleetwood Mac - Albatross.flac

Track gain : -3.64 dB
Peak : 0.957703
CRC32 hash (test run) : 0D3410B5
CRC32 hash : 0D3410B5
CRC32 hash (skip zero) : F7530C89
AccurateRip signature : 476A5806
->Accurately ripped! (confidence 1)
(matched with the different offset correction value;
calculated using an additional offset of 670;
the signature after correction is: 313CD950)
Statistics
Read error : 0
Skipped (treated as error) : 0
Edge jitter error (maybe fixed) : 0
Atom jitter error (maybe fixed) : 0
Drift error (maybe fixed) : 0
Dropped bytes error (maybe fixed) : 0
Duplicated bytes error (maybe fixed) : 0
Inconsistency in error sectors : 0

No errors occurred

End of status report





 Cue File


TITLE "TOTP-1968"
REM GENRE "Pop"
REM DATE 2007
FILE "TOTP-1968-01 Gary Pucket & The Union Gap - Young Girl.wav" WAVE
TRACK 01 AUDIO
TITLE "Young Girl"
PERFORMER "Gary Pucket & The Union Gap"
ISRC USSM16801017
INDEX 01 00:00:00
TRACK 02 AUDIO
TITLE "Son Of A Preacher Man"
PERFORMER "Dusty Springfield"
ISRC GBF086800754
INDEX 00 03:02:70
FILE "TOTP-1968-02 Dusty Springfield - Son Of A Preacher Man.wav" WAVE
INDEX 01 00:00:00
TRACK 03 AUDIO
TITLE "Something Is Happening"
PERFORMER "Herman's Hermits"
ISRC GBAYE6800043
INDEX 00 02:24:38
FILE "TOTP-1968-03 Herman's Hermits - Something Is Happening.wav" WAVE
INDEX 01 00:00:00
TRACK 04 AUDIO
TITLE "Step Inside Love"
PERFORMER "Cilla Black"
ISRC GBAYE6800080
INDEX 00 03:08:47
FILE "TOTP-1968-04 Cilla Black - Step Inside Love.wav" WAVE
INDEX 01 00:00:00
TRACK 05 AUDIO
TITLE "Bend Me Shape Me"
PERFORMER "Amen Corner"
ISRC GBF076820730
INDEX 00 02:19:10
FILE "TOTP-1968-05 Amen Corner - Bend Me Shape Me.wav" WAVE
INDEX 01 00:00:00
TRACK 06 AUDIO
TITLE "Mony Mony"
PERFORMER "Tommy James & The Shondells"
ISRC GBAYE6800081
INDEX 00 02:36:45
FILE "TOTP-1968-06 Tommy James & The Shondells - Mony Mony.wav" WAVE
INDEX 01 00:00:00
TRACK 07 AUDIO
TITLE "Fire"
PERFORMER "The Crazy World of Arthur Brown"
ISRC GBAKW6801003
INDEX 00 02:51:35
FILE "TOTP-1968-07 The Crazy World of Arthur Brown - Fire.wav" WAVE
INDEX 01 00:00:00
TRACK 08 AUDIO
TITLE "Dance To The Music"
PERFORMER "Sly & The Family Stone"
ISRC USSM16800054
INDEX 00 02:56:10
FILE "TOTP-1968-08 Sly & The Family Stone - Dance To The Music.wav" WAVE
INDEX 01 00:00:00
TRACK 09 AUDIO
TITLE "Everlasting Love"
PERFORMER "Love Affair"
ISRC GBBBN6702031
INDEX 00 02:58:43
FILE "TOTP-1968-09 Love Affair - Everlasting Love.wav" WAVE
INDEX 01 00:00:00
TRACK 10 AUDIO
TITLE "I'm A Tiger"
PERFORMER "Lulu"
ISRC GBAYE6800085
INDEX 00 02:57:68
FILE "TOTP-1968-10 Lulu - I'm A Tiger.wav" WAVE
INDEX 01 00:00:00
TRACK 11 AUDIO
TITLE "Jennifer Eccles"
PERFORMER "The Hollies"
ISRC GBGYU6800002
INDEX 00 02:43:70
FILE "TOTP-1968-11 The Hollies - Jennifer Eccles.wav" WAVE
INDEX 01 00:00:00
TRACK 12 AUDIO
TITLE "On The Road Again"
PERFORMER "Canned Heat"
ISRC USEM39400161
INDEX 00 02:54:67
FILE "TOTP-1968-12 Canned Heat - On The Road Again.wav" WAVE
INDEX 01 00:00:00
TRACK 13 AUDIO
TITLE "Hurdy Gurdy Man"
PERFORMER "Donovan"
ISRC GBAYE6800122
INDEX 00 03:11:08
FILE "TOTP-1968-13 Donovan - Hurdy Gurdy Man.wav" WAVE
INDEX 01 00:00:00
TRACK 14 AUDIO
TITLE "Green Tambourine"
PERFORMER "The Lemon Pipers"
ISRC USDR16700001
INDEX 00 03:15:51
FILE "TOTP-1968-14 The Lemon Pipers - Green Tambourine.wav" WAVE
INDEX 01 00:00:00
TRACK 15 AUDIO
TITLE "Rosie"
PERFORMER "Don Partridge"
ISRC GBAYE6800397
INDEX 00 02:23:05
FILE "TOTP-1968-15 Don Partridge - Rosie.wav" WAVE
INDEX 01 00:00:00
TRACK 16 AUDIO
TITLE "The Legend Of Xanadu"
PERFORMER "Dave Dee, Dozy, Beaky, Mick & Tich"
ISRC GBFO86800061
INDEX 00 02:15:17
FILE "TOTP-1968-16 Dave Dee, Dozy, Beaky, Mick & Tich - The Legend Of Xanadu.wav" WAVE
INDEX 01 00:00:00
TRACK 17 AUDIO
TITLE "Ob-La-Do Ob-La-Da"
PERFORMER "The Bedrocks"
ISRC GBAYE6800384
INDEX 00 03:35:38
FILE "TOTP-1968-17 The Bedrocks - Ob-La-Do Ob-La-Da.wav" WAVE
INDEX 01 00:00:00
TRACK 18 AUDIO
TITLE "I'm The Urban Spaceman"
PERFORMER "Bonzo Dog Doo-Dah Band"
ISRC GBAYE6800147
INDEX 00 03:00:25
FILE "TOTP-1968-18 Bonzo Dog Doo-Dah Band - I'm The Urban Spaceman.wav" WAVE
INDEX 01 00:00:00
TRACK 19 AUDIO
TITLE "Lily The Pink"
PERFORMER "The Scaffold"
ISRC GBAYE6800144
INDEX 00 02:22:46
FILE "TOTP-1968-19 The Scaffold - Lily The Pink.wav" WAVE
INDEX 01 00:00:00
TRACK 20 AUDIO
TITLE "Do It Again"
PERFORMER "The Beach Boys"
ISRC USCA26800175
INDEX 00 04:18:28
FILE "TOTP-1968-20 The Beach Boys - Do It Again.wav" WAVE
INDEX 01 00:00:00
TRACK 21 AUDIO
TITLE "Honey"
PERFORMER "Bobby Goldsboro"
ISRC USCN18800065
INDEX 00 02:15:46
FILE "TOTP-1968-21 Bobby Goldsboro - Honey.wav" WAVE
INDEX 01 00:00:00
TRACK 22 AUDIO
TITLE "May I Have The Next Dream With You"
PERFORMER "Malcolm Roberts"
ISRC GBAYE6800214
INDEX 00 03:56:68
FILE "TOTP-1968-22 Malcolm Roberts - May I Have The Next Dream With You.wav" WAVE
INDEX 01 00:00:00
TRACK 23 AUDIO
TITLE "I Pretend"
PERFORMER "Des O'Connor"
ISRC GBAYE6800682
INDEX 00 02:45:37
FILE "TOTP-1968-23 Des O'Connor - I Pretend.wav" WAVE
INDEX 01 00:00:00
TRACK 24 AUDIO
TITLE "She Wears My Ring"
PERFORMER "Solomon King"
ISRC GBAYE6800572
INDEX 00 02:47:39
FILE "TOTP-1968-24 Solomon King - She Wears My Ring.wav" WAVE
INDEX 01 00:00:00
TRACK 25 AUDIO
TITLE "Albatross"
PERFORMER "Fleetwood Mac"
ISRC GBBBN6800041
INDEX 00 03:12:05
FILE "TOTP-1968-25 Fleetwood Mac - Albatross.wav" WAVE
INDEX 01 00:00:00






.: Note :.

Orario di seed e Banda disponibile:

Lunedì/Venerdì dalle 15 alle 22
Sabato e festivi dalle 09 alle 22
50Kbps


RINGRAZIAMENTI

TNT - LOSSLESS CREW - CLOHIL - LEONENERO - MO YAN - KAIMANOV - IMAGESHACK - DEBASER - ALLMUSIC - ROCKOL - METALLIZED - WIKIPEDIA





user posted image



Top of The Pops - 1964

Top of The Pops - 1965

Top of The Pops - 1966

Top of The Pops - 1967




user posted imageuser posted imageuser posted imageuser posted image


Messaggio modificato da caraibbo il Feb 10 2019, 11:57 AM

> File Allegato
File Allegato   VA - Top Of The Pops 1968.torrent
Dimensione: 448 mb
Seeders:14
Leecher: 1
Completati: 300
Data ultimo seed: 2019-02-18 07:26:45
Info_hash: 3866290283A80EC53C16B5C164A4684590A2EDE8
Visualizza la lista dei peers
Visualizza i dettagli del torrent

™« Lossless Crew ™«

Le mie Release RISC - Rest In Seed Campaign

Top Releaser Discoteca Gennaio-Febbraio 2013 | Top Releaser Discoteca Luglio-Agosto 2013
TNTMusic Award Diamond Disc-Maggio 2014 | TNTMusic Award Diamond Disc-Giugno 2014 | TNTMusic Award Diamond Disc-Novembre 2014
PMEmail Poster
Top
assamestar
  Inviato il: Feb 10 2019, 12:58 PM
Quote Post


\"releaser\"
\"100rel\"
\"curcoord\"
\"discoteca\"
\"freeculture\"

Group Icon

Gruppo: Dirigenti
Messaggi: 3829
Utente Nr.: 1321998
Iscritto il: 8-February 15



YEP!! harp[1].gif

In Onda! welcomeani.gif

♫ Lossless Crew ♫

O cazzi o poggi!

BASE - Baby Seeding -|- RISC - Rest In Seed Campaign -|- Kill Skype --> Move to Tox

Se io do una mela a te e tu dai una pera a me, io me ne andrò via con la tua pera e tu con la mia mela.
Ma se io do un'idea a te e tu dai un'idea a me, allora entrambi andremo via con due idee.
Sharing is a lifestyle!


Coltiva Linux che uindovs si pianta già da solo
PMEmail Poster
Top
Ric_Hard
Inviato il: Feb 11 2019, 05:25 PM
Quote Post



Group Icon

Gruppo: Contribuenti
Messaggi: 558
Utente Nr.: 369617
Iscritto il: 18-November 09



Grazie!
PMEmail Poster
Top
Utenti totali che stanno leggendo la discussione: 1 (1 Visitatori e 0 Utenti Anonimi)
Gli utenti registrati sono 0 :
 

Topic Options Reply to this topicStart new topicStart Poll

 

Scambio etico - ethic share
 Debian powered site  Nginx powered site  Php 5 powered site  MariaDB powered site  xml rss2.0 compliant  no software patents  no software patents