Tnt village
tntvillage.scambioetico.org · Statuto T.N.T.      Aiuto      Cerca      Utenti      Calendario

Questo sito non utilizza cookies a scopo di tracciamento o di profilazione. L'utilizzo dei cookies ha fini strettamente tecnici.

Sostieni movimentopirati.org

 

  Rispondi a questa discussioneInizia nuova discussione

> Le Ali (1966), [DTTrip - H264 - Rus Aac - HardSub Ita] Guerra [CURA] Russia - Seconda Guerra Mondiale
chribio
  Inviato il: Apr 18 2017, 03:07 PM
Cita questo messaggio



Group Icon

Gruppo: Releaser
Messaggi: 701
Utente Nr.: 585792
Iscritto il: 6-May 11



user posted imageuser posted image


Le Ali (Krylya) 1966

user posted image

.: Scheda del Film :.


Titolo originale: Krylya

NazionalitÓ: U.R.S.S.

Anno: 1966

Genere: Drammatico

Distribuzione : MosFilm

Regia : Larisa Shepitko

Personaggi e Interpreti :

Maya Bulgakovа as Nadezhda Petrukhina

Zhanna Bolotova as Tanya

Pantelemion Krymov as Pavel Gavrilovich

Leonid Dyachkov as Mitya Grachov

Vladimir Gorelov as Igor

Yury Medvedev as Boris Grigoryevich
...

.: Trama :.


Nadezhda, ex pilota ed eroina ora dirige un istituto. Segnata dalla perdita del suo amore, durante la battaglia che l'ha resa celebre, non regge i rapporti umani e torna spesso al club di volo.

.: ScreenShot :.


 


user posted image

user posted image

user posted image

user posted image



.: Scheda tecnica del filmato :.


 


Format : MPEG-4
Format profile : Base Media
Codec ID : isom
File size : 514 MiB
Duration : 1h 20mn
Overall bit rate mode : Variable
Overall bit rate : 891 Kbps
Encoded date : UTC 1970-01-01 00:00:00
Tagged date : UTC 1970-01-01 00:00:00
Writing application : Lavf52.91.0

Video
ID : 1
Format : AVC
Format/Info : Advanced Video Codec
Format profile : Main@L3.0
Format settings, CABAC : Yes
Format settings, ReFrames : 3 frames
Codec ID : avc1
Codec ID/Info : Advanced Video Coding
Duration : 1h 20mn
Bit rate mode : Constant
Bit rate : 800 Kbps
Width : 700 pixels
Height : 392 pixels
Display aspect ratio : 16:9
Frame rate mode : Constant
Frame rate : 25.000 fps
Standard : NTSC
Color space : YUV
Chroma subsampling : 4:2:0
Bit depth : 8 bits
Scan type : Progressive
Bits/(Pixel*Frame) : 0.117
Stream size : 458 MiB (89%)
Language : Russian
Encoded date : UTC 1970-01-01 00:00:00
Tagged date : UTC 2017-04-05 13:01:20

Audio
ID : 2
Format : AAC
Format/Info : Advanced Audio Codec
Format profile : LC
Codec ID : 40
Duration : 1h 20mn
Bit rate mode : Variable
Bit rate : 93.6 Kbps
Channel(s) : 2 channels
Channel positions : Front: L R
Sampling rate : 44.1 KHz
Compression mode : Lossy
Stream size : 54.0 MiB (11%)
Language : Russian
Encoded date : UTC 1970-01-01 00:00:00
Tagged date : UTC 2017-04-05 13:01:20


.: Note :.


Orario di seed e Banda disponibile: 24 ore su 24 - Velocita' 108,8 kb/s - Fino Primi 20 Completati

Data Originale Registrazione 05/04/'017




CHI PUO' RESTI IN SEED PER QUESTO TORRENT PERCHE' A BREVE NON SARA' PIU' DISPONIBILE DAL RELEASER !!!
grazie.gif sorry.gif ciao.gif

> File Allegato
File Allegato   Le_Ali_66.torrent
Dimensione: 527 mb
Seeders:8
Leechers: 0
Completati: 200
Data ultimo seed: 2017-06-24 17:49:53
Info_hash: 3DE6C36E72B0D238FBC6F690098F15BC8747862A
Visualizza la lista dei peers
Visualizza i dettagli del torrent
Messaggio PrivatoIndirizzo Email
Top
toporosso
Inviato il: Apr 18 2017, 03:21 PM
Cita questo messaggio


\"residente\"
\"videoteca\"

Group Icon

Gruppo: Dirigenti
Messaggi: 4365
Utente Nr.: 875686
Iscritto il: 4-January 13



grazie.gif per la release smile.gif sposto welcomeani.gif

Se vi serve un Reseed delle Release che ho scaricato, provate a mandarmi un MP. Cercher˛ di aiutarvi.

------------------------------------------------------------------------------------------

La Critica Ŕ semplice, l'Arte Ŕ difficile
Messaggio Privato
Top
Dilling
Inviato il: Apr 21 2017, 12:16 PM
Cita questo messaggio


\"residente\"
\"curcoord\"
tesoriere & problemi legali
Group Icon

Gruppo: C.D.A.
Messaggi: 8415
Utente Nr.: 151
Iscritto il: 22-March 05



Messaggio PrivatoIndirizzo Email
Top
Utenti totali che stanno leggendo la discussione: 1 (1 Visitatori e 0 Utenti Anonimi)
Gli utenti registrati sono 0 :
 

Opzioni Discussione Rispondi a questa discussioneInizia nuova discussione

 

Scambio etico - ethic share
 Debian powered site  Nginx powered site  Php 5 powered site  MariaDB powered site  xml rss2.0 compliant  no software patents  no software patents