Tnt village
tntvillage.scambioetico.org · Statuto T.N.T.      Aiuto      Cerca      Utenti      Calendario

Questo sito non utilizza cookies a scopo di tracciamento o di profilazione. L'utilizzo dei cookies ha fini strettamente tecnici.

Sostieni movimentopirati.org

 

  Rispondi a questa discussioneInizia nuova discussione

> Following (Christopher Nolan, 1998), [BDmux 720p - H264 - Ita Ac3 - Eng Dts 5.1 - Multisub] Thriller
Orgazmo
  Inviato il: Mar 8 2014, 07:34 AM
Cita questo messaggio


\"100rel\"
\"coordinatore\"

Group Icon

Gruppo: Releaser
Messaggi: 687
Utente Nr.: 898633
Iscritto il: 5-February 13



Following (1998)


Following
user posted image
user posted imageuser posted imageuser posted image
user posted image
user posted image

user posted image user posted imageuser posted imageuser posted imageuser posted imageuser posted image 7,6/10user posted image



Scheda del Film

Titolo originale ╗ Following
NazionalitÓ ╗ U.S.A.
Anno ╗ 1998
Durata ╗ 70'
Genere ╗ Thriller
Regia ╗ Christopher Nolan

Cast:
Jeremy Theobald, Alex Haw, Lucy Russell, John Nolan, Dick Bradsell,
Gillian El-Kadi, Jennifer Angel, Nicolas Carlotti, Darren Ormandy,
Tristan Martin, Rebecca James, Paul Mason, David Bovill.



Trama

Un aspirante scrittore, per cercare ispirazione, comincia a pedinare le persone, trasformando le loro vite in materiale per lavoro. Tutto va liscio finchÚ egli non incontra Cobb, ladro di professione che, piano piano, gli insegna il mestiere.
La trama si complica quando lo scrittore si invaghisce della vittima di un furto e inizia a frequentarla.

Opera prima dell'autore di Memento, il film Ŕ stato studiato dal regista per essere il pi¨ economico possibile: le scene, prima di venire filmate, sono state provate ripetutamente dagli attori, in modo da doverne girare solo un paio, risparmiando sulla pellicola in bianco e nero da 16 mm, la componente pi¨ costosa dell'intera produzione, la quale veniva pagata dallo stesso Nolan col suo stipendio.


Following
user posted image

  



Following
user posted image
user posted image user posted image user posted image user posted image user posted image


Dettagli tecnici del file

 

General
Unique ID: 271099815698656751275957573377196601827 (0xCBF3ECE046D3CCC1CED2D0EB89F8B1E3)
Complete name: Following (Christopher Nolan, 1998) - 720p x264 - ITA Ac3 ENG Dts - Multisub - Orgazmo.mkv
Format: Matroska
Format version: Version 4 / Version 2
File size: 3.50 GiB
Duration: 1h 10mn
Overall bit rate: 7 132 Kbps
Movie name: Following (Christopher Nolan, 1998)
Encoded date: UTC 2014-03-07 17:05:41
Writing application: mkvmerge v6.2.0 ('Promised Land') built on Apr 28 2013 18:50:30
Writing library: libebml v1.3.0 + libmatroska v1.4.0

Video
ID: 1
Format: AVC
Format/Info: Advanced Video Codec
Format profile: High@L4.1
Format settings, CABAC: Yes
Format settings, ReFrames: 5 frames
Codec ID: V_MPEG4/ISO/AVC
Duration: 1h 10mn
Bit rate: 5 172 Kbps
Width: 960 pixels
Height: 720 pixels
Display aspect ratio: 4:3
Frame rate mode: Constant
Frame rate: 23.976 fps
Color space: YUV
Chroma subsampling: 4:2:0
Bit depth: 8 bits
Scan type: Progressive
Bits/(Pixel*Frame): 0.312
Stream size: 2.47 GiB (71%)
Title: Following (Christopher Nolan, 1998)
Writing library: x264 core 129 r2230 1cffe9f
Encoding settings: cabac=1 / ref=5 / deblock=1:0:0 / analyse=0x3:0x133 / me=umh / subme=7 /
psy=1 / psy_rd=1.00:0.00 / mixed_ref=1 / me_range=16 / chroma_me=1 / trellis=1 / 8x8dct=1 /
cqm=0 / deadzone=21,11 / fast_pskip=0 / chroma_qp_offset=-2 / threads=12 /
lookahead_threads=2 / sliced_threads=0 / nr=0 / decimate=1 / interlaced=0 /
bluray_compat=0 / constrained_intra=0 / bframes=3 / b_pyramid=2 / b_adapt=1 / b_bias=0 /
direct=1 / weightb=1 / open_gop=0 / weightp=2 / keyint=250 / keyint_min=23 / scenecut=40 /
intra_refresh=0 / rc_lookahead=40 / rc=2pass / mbtree=1 / bitrate=5172 / ratetol=1.0 /
qcomp=0.60 / qpmin=0 / qpmax=69 / qpstep=4 / cplxblur=20.0 / qblur=0.5 / ip_ratio=1.40 / aq=1:1.00
Language: English
Default: Yes
Forced: No

Audio #1
ID: 2
Format: AC-3
Format/Info: Audio Coding 3
Mode extension: CM (complete main)
Format settings, Endianness: Big
Codec ID: A_AC3
Duration: 1h 10mn
Bit rate mode: Constant
Bit rate: 448 Kbps
Channel count: 2 channels
Channel positions: Front: L R
Sampling rate: 48.0 KHz
Bit depth: 16 bits
Compression mode: Lossy
Stream size: 225 MiB (6%)
Title: Italiano AC3 2.0
Language: Italian
Default: Yes
Forced: No

Audio #2
ID: 3
Format: DTS
Format/Info: Digital Theater Systems
Mode: 16
Format settings, Endianness: Big
Codec ID: A_DTS
Duration: 1h 10mn
Bit rate mode: Constant
Bit rate: 1 509 Kbps
Channel count: 6 channels
Channel positions: Front: L C R, Side: L R, LFE
Sampling rate: 48.0 KHz
Bit depth: 24 bits
Compression mode: Lossy
Stream size: 757 MiB (21%)
Title: English DTS 5.1
Language: English
Default: No
Forced: No

Text #1
ID: 4
Format: UTF-8
Codec ID: S_TEXT/UTF8
Codec ID/Info: UTF-8 Plain Text
Title: Italiano
Language: Italian
Default: Yes
Forced: No

Text #2
ID: 5
Format: UTF-8
Codec ID: S_TEXT/UTF8
Codec ID/Info: UTF-8 Plain Text
Title: English
Language: English
Default: No
Forced: No

Text #3
ID: 6
Format: UTF-8
Codec ID: S_TEXT/UTF8
Codec ID/Info: UTF-8 Plain Text
Title: Franšois
Language: French
Default: No
Forced: No

Text #4
ID: 7
Format: UTF-8
Codec ID: S_TEXT/UTF8
Codec ID/Info: UTF-8 Plain Text
Title: Deutsch
Language: German
Default: No
Forced: No

Text #5
ID: 8
Format: UTF-8
Codec ID: S_TEXT/UTF8
Codec ID/Info: UTF-8 Plain Text
Title: Espan÷l
Language: Spanish
Default: No
Forced: No

Text #6
ID: 9
Format: UTF-8
Codec ID: S_TEXT/UTF8
Codec ID/Info: UTF-8 Plain Text
Title: Dutch
Language: Dutch
Default: No
Forced: No

Text #7
ID: 10
Format: UTF-8
Codec ID: S_TEXT/UTF8
Codec ID/Info: UTF-8 Plain Text
Title: Swedish
Language: Swedish
Default: No
Forced: No

Text #8
ID: 11
Format: UTF-8
Codec ID: S_TEXT/UTF8
Codec ID/Info: UTF-8 Plain Text
Title: Cesky
Language: Czech
Default: No
Forced: No

Menu
13 Chapters



NOTE

Export su:
H33T, Monova, SeedPeer, 1337x, Fenopy, BTScene, BTArena, AhAhShare, FullDls.


user posted image

Lascia in seed pi¨ tempo possibile per aiutare altri come te a completare la release.
Si tratta, appunto, di Scambio Etico... Siate generosi!!!



Ringraziare il Releaser Ŕ, come prima cosa, un gesto di educazione ma, sopratutto, Ŕ l'unico compenso che esso riceve per le proprie pubblicazioni sul forum.
Mettere un "grazie" non costa nulla mentre realizzare e pubblicare release richiede tempo e fatica.
Un "grazie" Ŕ il minimo per far sapere ad un releaser che il suo lavoro Ŕ apprezzato e lo sprona a continuare.


user posted image




.: Babysitting & Reseed :.

user posted imageuser posted imageuser posted imageuser posted image


Messaggio modificato da Orgazmo il Jun 7 2016, 09:42 AM

> File Allegato
File Allegato   Following 720p ITA ac3 ENG dts.torrent
Dimensione: 3666 mb
Seeders:6
Leechers: 0
Completati: 3567
Data ultimo seed: 2017-08-23 02:23:15
Info_hash: 665F43C527DE9C753C4F5DC96685B106DF1FB205
Visualizza la lista dei peers
Visualizza i dettagli del torrent
Messaggio Privato
Top
agidi77
Inviato il: Mar 8 2014, 09:44 AM
Cita questo messaggio


\"coordinatore\"

Group Icon

Gruppo: Domiciliati
Messaggi: 582
Utente Nr.: 955043
Iscritto il: 11-May 13



Grazie Orgazmo, per questa bella release.
Sposto harp[1].gif

Non si vede bene che col cuore. L'essenziale Ŕ invisibile agli occhi.

Antoine de Saint-ExupÚry, 1943, Il piccolo principe
Messaggio PrivatoIndirizzo Email
Top
Billo_1987
Inviato il: Aug 10 2017, 11:15 AM
Cita questo messaggio



Group Icon

Gruppo: Domiciliati
Messaggi: 153
Utente Nr.: 1499592
Iscritto il: 6-May 16



grazie
Messaggio PrivatoIndirizzo Email
Top
aguirrez
Inviato il: Aug 13 2017, 12:13 AM
Cita questo messaggio



Group Icon

Gruppo: Domiciliati
Messaggi: 7
Utente Nr.: 953807
Iscritto il: 8-May 13



grazie.gif birra.gif
Messaggio PrivatoIndirizzo Email
Top
Utenti totali che stanno leggendo la discussione: 1 (1 Visitatori e 0 Utenti Anonimi)
Gli utenti registrati sono 0 :
 

Opzioni Discussione Rispondi a questa discussioneInizia nuova discussione

 

Scambio etico - ethic share
 Debian powered site  Nginx powered site  Php 5 powered site  MariaDB powered site  xml rss2.0 compliant  no software patents  no software patents