Tnt village
tntvillage.scambioetico.org · Statuto T.N.T.      Aiuto      Cerca      Utenti      Calendario

Questo sito non utilizza cookies a scopo di tracciamento o di profilazione. L'utilizzo dei cookies ha fini strettamente tecnici.

Sostieni movimentopirati.org

 

  Rispondi a questa discussioneInizia nuova discussioneAvvia sondaggio

> The Path S01e01-10, [H264 - Ita Aac] WEBRip by ADE CreW (Stagione Completa)
skull
  Inviato il: Sep 13 2017, 11:40 AM
Cita questo messaggio



Group Icon

Gruppo: Domiciliati
Messaggi: 20
Utente Nr.: 4786
Iscritto il: 7-June 05



The Path S01 (Stagione Completa)

user posted image

.: Scheda della serie :.

Anno: 2016
Genere: Drammatico

Cast:
Aaron Paul
Michelle Monaghan
Hugh Dancy

.: Trama :.


Cal Roberts è un carismatico e ambiguo leader del movimento religioso dei Meyeristi, che recluta persone in difficoltà promettendo una vita serena e priva di dolori. I membri vivono in un piccolo villaggio rurale a nord di New York e seguono i dettami del Dr. Steven Meyer, fondatore del movimento chiamato il "Guardiano della Luce". Tra i membri vi sono i coniugi Eddie e Sarah Lane; lui è un uomo tormentato con un passato di droga mentre lei è nata e cresciuta in una famiglia Meyerista. I quotidiani riti, preghiere e regole nascondono in realtà molti oscuri segreti, che portano ad una crisi di fede di Eddie che inizia a nutrire dubbi sulla vera natura dei Meyeristi.

.: ScreenShot :.

user posted image
user posted image

.: Scheda tecnica :.

 


Video
ID : 1
Format : AVC
Format/Info : Advanced Video Codec
Format profile : High@L3.1
Format settings, CABAC : Yes
Format settings, ReFrames : 7 frames
Codec ID : V_MPEG4/ISO/AVC
Duration : 55 min 53 s
Bit rate : 1 050 kb/s
Width : 720 pixels
Height : 404 pixels
Display aspect ratio : 16:9
Frame rate mode : Constant
Frame rate : 25.000 FPS
Color space : YUV
Chroma subsampling : 4:2:0
Bit depth : 8 bits
Scan type : Progressive
Bits/(Pixel*Frame) : 0.144
Stream size : 420 MiB (90%)
Writing library : x264 core 146 r2538 121396c
Encoding settings : cabac=1 / ref=7 / deblock=1:-2:-2 / analyse=0x3:0x133 / me=umh / subme=9 / psy=1 / psy_rd=1.00:0.00 / mixed_ref=1 / me_range=16 / chroma_me=1 / trellis=2 / 8x8dct=1 / cqm=0 / deadzone=21,11 / fast_pskip=1 / chroma_qp_offset=-2 / threads=12 / lookahead_threads=1 / sliced_threads=0 / nr=0 / decimate=1 / interlaced=0 / bluray_compat=0 / constrained_intra=0 / bframes=3 / b_pyramid=2 / b_adapt=2 / b_bias=0 / direct=3 / weightb=1 / open_gop=0 / weightp=2 / keyint=250 / keyint_min=23 / scenecut=40 / intra_refresh=0 / rc_lookahead=50 / rc=2pass / mbtree=1 / bitrate=1050 / ratetol=1.0 / qcomp=0.60 / qpmin=0 / qpmax=69 / qpstep=4 / cplxblur=20.0 / qblur=0.5 / ip_ratio=1.40 / aq=1:1.00
Default : Yes
Forced : No

Audio
ID : 2
Format : AAC
Format/Info : Advanced Audio Codec
Format profile : LC
Codec ID : A_AAC
Duration : 55 min 53 s
Bit rate : 111 kb/s
Channel(s) : 2 channels
Channel positions : Front: L R
Sampling rate : 44.1 kHz
Frame rate : 43.066 FPS (1024 spf)
Compression mode : Lossy
Delay relative to video : 10 ms
Stream size : 44.4 MiB (10%)
Language : English
Default : Yes
Forced : No



.: Note :.

Orario di seed e Banda disponibile:
Seeding solo durante il giorno, 150-200KB/s Massimo

By ADE CreW


Messaggio modificato da AliceTNT il Sep 13 2017, 12:22 PM

> File Allegato
File Allegato   The Path S01e01-10.torrent
Dimensione: 4230 mb
Seeders:13
Leechers: 0
Completati: 523
Data ultimo seed: 2017-10-18 07:50:23
Info_hash: C2957194A52995B5DCC74447F41E7A259813DA60
Visualizza la lista dei peers
Visualizza i dettagli del torrent
Messaggio Privato
Top
skull
Inviato il: Sep 13 2017, 12:04 PM
Cita questo messaggio



Group Icon

Gruppo: Domiciliati
Messaggi: 20
Utente Nr.: 4786
Iscritto il: 7-June 05



Noto adesso che MediaInfo ha riportato:
Language: English

Anche VLC mi dice la stessa cosa, ma tutti gli episodi sono in Italiano.
Messaggio Privato
Top
AliceTNT
Inviato il: Sep 13 2017, 12:23 PM
Cita questo messaggio


\"releaser\"
\"100rel\"
\"curcoord\"
\"contribuente\"
\"tnttv\"

Group Icon

Gruppo: Funzionari
Messaggi: 8019
Utente Nr.: 919317
Iscritto il: 9-March 13



Tutto ok, ho solo messo l'icona Serie TV e sistemato titolo e descrizione.

user posted image

Messaggio PrivatoIndirizzo Email
Top
skull
Inviato il: Sep 13 2017, 12:25 PM
Cita questo messaggio



Group Icon

Gruppo: Domiciliati
Messaggi: 20
Utente Nr.: 4786
Iscritto il: 7-June 05



OK, grazie.
Messaggio Privato
Top
exi
Inviato il: Sep 13 2017, 01:36 PM
Cita questo messaggio



Group Icon

Gruppo: Domiciliati
Messaggi: 541
Utente Nr.: 775060
Iscritto il: 29-July 12



una serie che non conoscevo....mille volte grazie. angel1.gif angel1.gif angel1.gif angel1.gif
Messaggio PrivatoIndirizzo Email
Top
macbeth ottone
Inviato il: Sep 13 2017, 02:28 PM
Cita questo messaggio



Group Icon

Gruppo: Domiciliati
Messaggi: 233
Utente Nr.: 887868
Iscritto il: 20-January 13



Grazie! clap.gif
Messaggio PrivatoIndirizzo Email
Top
franco1612
Inviato il: Sep 13 2017, 04:25 PM
Cita questo messaggio



Group Icon

Gruppo: Domiciliati
Messaggi: 26
Utente Nr.: 432251
Iscritto il: 20-March 10



Grazie !! clap.gif
Messaggio PrivatoIndirizzo Email
Top
Treboniano
Inviato il: Sep 13 2017, 08:44 PM
Cita questo messaggio



Group Icon

Gruppo: Domiciliati
Messaggi: 193
Utente Nr.: 700461
Iscritto il: 4-March 12



grazie.gif
Messaggio PrivatoIndirizzo Email
Top
Lu.Ce.56
Inviato il: Sep 13 2017, 09:58 PM
Cita questo messaggio



Group Icon

Gruppo: Residenti
Messaggi: 777
Utente Nr.: 839924
Iscritto il: 7-November 12



Grazie!!!
Messaggio PrivatoIndirizzo Email
Top
pierpicchio
Inviato il: Sep 14 2017, 08:27 AM
Cita questo messaggio



Group Icon

Gruppo: Domiciliati
Messaggi: 152
Utente Nr.: 833417
Iscritto il: 28-October 12



grazie.gif
Messaggio PrivatoIndirizzo Email
Top
16silvia61
Inviato il: Sep 14 2017, 04:25 PM
Cita questo messaggio



Group Icon

Gruppo: Domiciliati
Messaggi: 318
Utente Nr.: 773359
Iscritto il: 27-July 12



Grazie!!!
Messaggio PrivatoIndirizzo Email
Top
ragno70
Inviato il: Sep 14 2017, 05:10 PM
Cita questo messaggio



Group Icon

Gruppo: Contribuenti
Messaggi: 1171
Utente Nr.: 319986
Iscritto il: 31-August 09



grazie.gif skull clap.gif sembra proprio interessante

SERIE TV USA ANNI 60-70-80!!! SPIDER-MAN, FANTASTICI QUATTRO, AVENGERS, CAPITAN AMERICA, THOR, X-MEN, IRON MAN, DEVIL.... I LOVE MARVEL !!! MAZINGA Z, GRANDE MAZINGA, GETTER e GETTER G robot, JEEG, GOLDRAKE, CAP. HARLOCK, LUPIN, NINJA KAMUI, DORAEMON....
RINGRAZIAMO sempre i RELEASERS, e NON fate i VAMPIRI !!![SIZE=7]
Messaggio PrivatoIndirizzo Email
Top
skull
Inviato il: Sep 14 2017, 05:41 PM
Cita questo messaggio



Group Icon

Gruppo: Domiciliati
Messaggi: 20
Utente Nr.: 4786
Iscritto il: 7-June 05



Fatemi sapere se è tutto a posto con gli episodi, io non li ho ancora guardati... *crossed_fingers*
Messaggio Privato
Top
Vaclav1
Inviato il: Sep 14 2017, 08:06 PM
Cita questo messaggio



Group Icon

Gruppo: Domiciliati
Messaggi: 76
Utente Nr.: 901794
Iscritto il: 9-February 13



grazie
Messaggio PrivatoIndirizzo Email
Top
Telefan
Inviato il: Sep 15 2017, 04:26 PM
Cita questo messaggio



Group Icon

Gruppo: Domiciliati
Messaggi: 347
Utente Nr.: 828620
Iscritto il: 19-October 12



grazie.gif
Messaggio PrivatoIndirizzo Email
Top
ors500
Inviato il: Sep 16 2017, 08:26 AM
Cita questo messaggio



Group Icon

Gruppo: Domiciliati
Messaggi: 243
Utente Nr.: 1417277
Iscritto il: 13-October 15



grazie.gif
Messaggio PrivatoIndirizzo Email
Top
Utenti totali che stanno leggendo la discussione: 1 (1 Visitatori e 0 Utenti Anonimi)
Gli utenti registrati sono 0 :
 

Opzioni Discussione Rispondi a questa discussioneInizia nuova discussioneAvvia sondaggio

 

Scambio etico - ethic share
 Debian powered site  Nginx powered site  Php 5 powered site  MariaDB powered site  xml rss2.0 compliant  no software patents  no software patents