Tnt village
tntvillage.scambioetico.org · Statuto T.N.T.      Aiuto      Cerca      Utenti      Calendario

Questo sito non utilizza cookies a scopo di tracciamento o di profilazione. L'utilizzo dei cookies ha fini strettamente tecnici.

Sostieni movimentopirati.org

 

  Rispondi a questa discussioneInizia nuova discussione

> Dragon Ball Super S01e72, [720p - H264 - Jap Aac - HardSub Ita] WEB-DL - Progetto Dragon Ball
xxrr555
  Inviato il: Jan 5 2017, 10:57 PM
Cita questo messaggio



Group Icon

Gruppo: Releaser
Messaggi: 1453
Utente Nr.: 379707
Iscritto il: 6-December 09



user posted image

Dragon Ball Super


user posted image

user posted image
Lingua orig. giapponese
Paese Giappone
Regia Kimitoshi Chioka
Produttori Osamu Nozaki, Naoko Sagawa, Atsushi Kido
Soggetto Akira Toriyama
Char. design Tadayoshi Yamamuro, Akira Toriyama (base)
Dir. artistica Shinzo Yuki
Musiche Norihito Sumitomo
Studio Toei Animation
Rete Fuji Television
1¬ TV 5 luglio 2015 ľ in corso
PeriodicitÓ Settimanale
Episodi 26 (in corso)
Aspect ratio 16:9
Genere azione, fantasy, fantascienza

user posted image
Dragon Ball Super, Ŕ una serie televisiva anime prodotta da Toei Animation, per la regia generale di Kimitoshi Chioka, e trasmessa in Giappone a partire dal 5 luglio 2015 su Fuji Television. ╚ la prima serie TV inedita di Dragon Ball prodotta dal 1997 e la quinta in totale.

La serie narra le vicende accadute dopo la battaglia contro Majin Bu e comprende i 10 anni di pace seguenti fino alla fine di Dragon Ball Z. In essa sono incluse anche le storie dei due film d'animazione La battaglia degli dei e La resurrezione di 'F' ma reintrodotte e rielaborate da zero nelle varie puntate con alcune differenze. Oltre ad essere un reboot dei due film, la trama comprenderÓ anche una storia inedita intitolata la "Saga del Sesto Universo" in cui ci sarÓ il Dio della distruzione di un altro universo: Champa.

user posted image
La storia Ŕ ambientata 6 mesi dopo la sconfitta di Majin Bu, con la Terra finalmente in pace. Gohan e Videl si sono sposati e Goku Ŕ costretto da Chichi a lavorare nei campi per guadagnare denaro, in quanto oramai il patrimonio dello Stregone del Toro Ŕ quasi esaurito, tuttavia grazie a Mr. Satan che gli consegna una ricompensa in denaro ricevuta dallo stato per la salvezza del mondo, Goku pu˛ smettere di lavorare e ricominciare ad allenarsi, mentre Vegeta passa un po' di tempo in vacanza con la famiglia, per poi anch'esso tornare ad allenarsi con l'obiettivo di superare il suo rivale Kakaroth.
Nel frattempo il Dio della distruzione, Beerus, si risveglia dopo 39 anni di sonno, ed insieme al suo maestro Whis va alla ricerca di un certo "Super Saiyan God" visto da lui in una visione, non prima di aver distrutto alcuni pianeti per capriccio, sotto lo sgomento dei Kaiohshin. Nel giorno della festa di Bulma, Goku va ad allenarsi da Re Kaioh, e proprio in quel momento Beerus si dirige da lui.


user posted image
user posted image user posted image user posted image
user posted image

user posted image

 

General
Format : MPEG-4
Format profile : Base Media
Codec ID : isom
File size : 283 MiB
Duration : 23mn 22s
Overall bit rate : 1 696 Kbps
Encoded date : UTC 2016-12-18 14:01:45
Tagged date : UTC 2016-12-18 14:01:45

Video
ID : 1
Format : AVC
Format/Info : Advanced Video Codec
Format profile : High@L4.1
Format settings, CABAC : Yes
Format settings, ReFrames : 3 frames
Codec ID : avc1
Codec ID/Info : Advanced Video Coding
Duration : 23mn 22s
Bit rate mode : Variable
Bit rate : 1 500 Kbps
Maximum bit rate : 9 565 Kbps
Width : 1 280 pixels
Height : 720 pixels
Display aspect ratio : 16:9
Frame rate mode : Constant
Frame rate : 23.976 fps
Color space : YUV
Chroma subsampling : 4:2:0
Bit depth : 8 bits
Scan type : Progressive
Bits/(Pixel*Frame) : 0.068
Stream size : 251 MiB (88%)
Writing library : x264 core 148 r2638 7599210
Encoding settings : cabac=1 / ref=3 / deblock=1:0:0 / analyse=0x3:0x113 / me=umh / subme=6 / psy=1 / psy_rd=1.00:0.00 / mixed_ref=1 / me_range=12 / chroma_me=1 / trellis=2 / 8x8dct=1 / cqm=0 / deadzone=21,11 / fast_pskip=1 / chroma_qp_offset=-2 / threads=12 / lookahead_threads=2 / sliced_threads=0 / nr=0 / decimate=1 / interlaced=0 / bluray_compat=0 / constrained_intra=0 / bframes=3 / b_pyramid=0 / b_adapt=2 / b_bias=0 / direct=3 / weightb=1 / open_gop=0 / weightp=2 / keyint=240 / keyint_min=23 / scenecut=40 / intra_refresh=0 / rc_lookahead=40 / rc=2pass / mbtree=1 / bitrate=1500 / ratetol=1.0 / qcomp=0.50 / qpmin=10 / qpmax=51 / qpstep=4 / cplxblur=20.0 / qblur=0.5 / vbv_maxrate=24000 / vbv_bufsize=24000 / nal_hrd=none / filler=0 / ip_ratio=1.10 / aq=1:1.00
Encoded date : UTC 2016-12-18 14:01:45
Tagged date : UTC 2016-12-18 14:01:50

Audio
ID : 2
Format : AAC
Format/Info : Advanced Audio Codec
Format profile : LC
Codec ID : 40
Duration : 23mn 22s
Bit rate mode : Variable
Bit rate : 192 Kbps
Maximum bit rate : 228 Kbps
Channel(s) : 2 channels
Channel positions : Front: L R
Sampling rate : 44.1 KHz
Compression mode : Lossy
Stream size : 32.0 MiB (11%)
Language : new
Encoded date : UTC 2016-12-18 13:45:23
Tagged date : UTC 2016-12-18 14:01:50



user posted image
Orario di seed e Banda disponibile: orario variabile, tra le 21 e le 03 dal lunedý al venerdý, dalle 12 alle 22 il sabato e la domenica. Banda 100-120kb/s, fino a 50 completati.
Per il re-seed inviare un mp solo in caso di seed inferiori a 2 e/o velocitÓ download inferiore ai 10kb!


Recupera i precedenti episodi -> QUI <-

Interessato alla versione Blu Ray? Recupera gli episodi -> QUI <-


user posted image


Messaggio modificato da BeppExilE il Oct 19 2017, 08:24 AM

> File Allegato
File Allegato   Dragon Ball Super S01e72.torrent
Dimensione: 290 mb
Seeders:5
Leechers: 0
Completati: 998
Data ultimo seed: 2018-02-18 05:38:50
Info_hash: 494A19D83B2D2EF6E8498EF20DDEBA0183096B29
Visualizza la lista dei peers
Visualizza i dettagli del torrent

Messaggio Privato
Top
AliceTNT
Inviato il: Jan 5 2017, 11:20 PM
Cita questo messaggio


\"releaser\"
\"100rel\"
\"curcoord\"
\"contribuente\"
\"tnttv\"

Group Icon

Gruppo: Funzionari
Messaggi: 10391
Utente Nr.: 919317
Iscritto il: 9-March 13



grazie.gif per la rella, sposto good.gif

Messaggio PrivatoIndirizzo Email
Top
clarckinlost
Inviato il: Jan 29 2017, 12:36 PM
Cita questo messaggio



Group Icon

Gruppo: Domiciliati
Messaggi: 111
Utente Nr.: 826393
Iscritto il: 16-October 12



Quando gli altri episodi ???? :-)
Messaggio PrivatoIndirizzo Email
Top
The wice
Inviato il: Mar 22 2017, 06:37 AM
Cita questo messaggio



Group Icon

Gruppo: Domiciliati
Messaggi: 1
Utente Nr.: 1038804
Iscritto il: 20-October 13



NovitÓ sulle puntate?
Messaggio PrivatoIndirizzo Email
Top
paperoga67
Inviato il: Mar 22 2017, 05:57 PM
Cita questo messaggio


\"residente\"
\"animecartoon\"

Group Icon

Gruppo: Funzionari
Messaggi: 1771
Utente Nr.: 311913
Iscritto il: 19-August 09



QUOTE (The wice @ Mar 22 2017, 07:37 AM)
NovitÓ sulle puntate?

Manda un messaggio privato al releaser
Se non risponde fai la richiesta in Club Anime
Messaggio PrivatoIndirizzo Email
Top
xxrr555
Inviato il: Apr 2 2017, 10:59 AM
Cita questo messaggio



Group Icon

Gruppo: Releaser
Messaggi: 1453
Utente Nr.: 379707
Iscritto il: 6-December 09



in giornata arriva qualcosa

Messaggio Privato
Top
GIOSTEOPAT
Inviato il: Aug 19 2017, 12:49 PM
Cita questo messaggio



Group Icon

Gruppo: Domiciliati
Messaggi: 57
Utente Nr.: 425591
Iscritto il: 3-March 10



grazie.gif
Messaggio PrivatoIndirizzo Email
Top
BeppExilE
Inviato il: Oct 19 2017, 08:28 AM
Cita questo messaggio


\"releaser\"
\"500rel\"
\"contribuente\"
\"curcoord\"
\"animecartoon\"

Group Icon

Gruppo: Dirigenti
Messaggi: 3448
Utente Nr.: 1253415
Iscritto il: 2-November 14



Release aggiunta al

user posted image

Grazie!

FILM | DOCUMENTARI | ANIME | CARTOON | SERIE-TV | FUMETTI | PODCAST | STUDENT'S RELEASES

Le mie Adozioni | Prima Visione
Progetto Dragon Ball | Progetto Simpsons
Ciclo Arti Marziali | Ciclo Supereroi


NON CONTATTATEMI PER SAPERE DEI RILASCI, PUBBLICHERO' QUANDO AVRO' MODO E TEMPO PER FARLO!!!

NON EFFETTUO RESEED SUI DVD5-9 DA ME CARICATI, PERCHE' SONO PRESI DA ALTRI SITI, E LI CANCELLO DOPO 50 COMPLETI
Messaggio Privato
Top
paolisio
Inviato il: Feb 13 2018, 11:02 PM
Cita questo messaggio



Group Icon

Gruppo: Contribuenti
Messaggi: 103
Utente Nr.: 130679
Iscritto il: 5-June 07



Grazie mille!!!! clap.gif ok.gif
Messaggio PrivatoIndirizzo Email
Top
Utenti totali che stanno leggendo la discussione: 1 (1 Visitatori e 0 Utenti Anonimi)
Gli utenti registrati sono 0 :
 

Opzioni Discussione Rispondi a questa discussioneInizia nuova discussione

 

Scambio etico - ethic share
 Debian powered site  Nginx powered site  Php 5 powered site  MariaDB powered site  xml rss2.0 compliant  no software patents  no software patents