Tnt village
tntvillage.scambioetico.org · Statuto T.N.T.      Aiuto      Cerca      Utenti      Calendario

Questo sito non utilizza cookies a scopo di tracciamento o di profilazione. L'utilizzo dei cookies ha fini strettamente tecnici.

Sostieni movimentopirati.org

 

  Rispondi a questa discussioneInizia nuova discussioneAvvia sondaggio

> John Zorn - The Big Gundown (1986), [Flac] Contemporary Jazz - Musica Contemporanea - Test&Copy + Cue (Lossless Crew)
Kafi
  Inviato il: Mar 19 2017, 07:14 PM
Cita questo messaggio


\"100rel\"

Group Icon

Gruppo: Releaser
Messaggi: 204
Utente Nr.: 1577995
Iscritto il: 18-January 17



user posted image | user posted image



John Zorn – The Big Gundown (1986)

John Zorn plays the music of Ennio Morricone



user posted image


.: Dati Album :.

user posted image


Tipo: album in studio
Dischi: 1
Tracce: 10
Genere: Musica Contemporanea – Contemporary Jazz
Registrazione: 1986
Label: Elektra Nonesuch


.: Tracklist :.



user posted image


user posted image


Formato: FLAC lossless Audio (compression 5)
Dimensione: 232 Mb


.: Note :.



  John Zorn – The Big Gundown.log

X Lossless Decoder version 20161007 (149.3)

XLD extraction logfile from 2017-03-19 18:44:43 +0100

Zorn, John / The Big Gundown

Used drive : HL-DT-ST DVDRW GA32N (revision KE06)
Media type : Pressed CD

Ripper mode : XLD Secure Ripper
Disable audio cache : OK for the drive with a cache less than 1375KiB
Make use of C2 pointers : NO
Read offset correction : 103
Max retry count : 20
Gap status : Analyzed, Appended (except HTOA)

TOC of the extracted CD
Track | Start | Length | Start sector | End sector
---------------------------------------------------------
1 | 00:00:00 | 07:26:40 | 0 | 33489
2 | 07:26:40 | 04:16:10 | 33490 | 52699
3 | 11:42:50 | 03:49:02 | 52700 | 69876
4 | 15:31:52 | 03:03:45 | 69877 | 83646
5 | 18:35:22 | 04:27:03 | 83647 | 103674
6 | 23:02:25 | 03:50:37 | 103675 | 120961
7 | 26:52:62 | 06:06:25 | 120962 | 148436
8 | 32:59:12 | 04:36:65 | 148437 | 169201
9 | 37:36:02 | 04:37:48 | 169202 | 190024
10 | 42:13:50 | 08:32:05 | 190025 | 228429

List of alternate offset correction values
# | Absolute | Relative | Confidence
------------------------------------------
1 | -726 | -829 | 9

AccurateRip Summary (DiscID: 0012513d-00912f96-850be50a)
Track 01 : OK (v1+v2, confidence 34/43)
Track 02 : OK (v1+v2, confidence 34/43)
Track 03 : OK (v1+v2, confidence 33/42)
Track 04 : OK (v1+v2, confidence 34/43)
Track 05 : OK (v1+v2, confidence 34/43)
Track 06 : OK (v1+v2, confidence 34/43)
Track 07 : OK (v1+v2, confidence 34/43)
Track 08 : OK (v1+v2, confidence 34/43)
Track 09 : OK (v1+v2, confidence 34/43)
Track 10 : OK (v1+v2, confidence 29/37)
->All tracks accurately ripped.

All Tracks
Statistics
Read error : 0
Jitter error (maybe fixed) : 0
Retry sector count : 0
Damaged sector count : 0

Track 01
Filename : [REMOVE]/John Zorn - The Big Gundown /01 Zorn, John - The Big Gundown.flac
Pre-gap length : 00:02:00

CRC32 hash : 8295F50D
CRC32 hash (skip zero) : 9C7A2A2F
AccurateRip v1 signature : 4EF18884
AccurateRip v2 signature : B733A6FA
->Accurately ripped (v1+v2, confidence 17+17/43)
Statistics
Read error : 0
Jitter error (maybe fixed) : 0
Retry sector count : 0
Damaged sector count : 0

Track 02
Filename : [REMOVE]/John Zorn - The Big Gundown /02 Zorn, John - Peur Sur La Ville.flac
Pre-gap length : 00:03:65

CRC32 hash : A459BB7D
CRC32 hash (skip zero) : 2C5AA3FC
AccurateRip v1 signature : 3A4C1848
AccurateRip v2 signature : EA275D31
->Accurately ripped (v1+v2, confidence 17+17/43)
Statistics
Read error : 0
Jitter error (maybe fixed) : 0
Retry sector count : 0
Damaged sector count : 0

Track 03
Filename : [REMOVE]/John Zorn - The Big Gundown /03 Zorn, John - Poverty (Once Upon A Time In America).flac
Pre-gap length : 00:05:03

CRC32 hash : 37E3013F
CRC32 hash (skip zero) : 4603506A
AccurateRip v1 signature : C8B0B55D
AccurateRip v2 signature : 9FD786A9
->Accurately ripped (v1+v2, confidence 17+16/42)
Statistics
Read error : 0
Jitter error (maybe fixed) : 0
Retry sector count : 0
Damaged sector count : 0

Track 04
Filename : [REMOVE]/John Zorn - The Big Gundown /04 Zorn, John - Milano Odea.flac
Pre-gap length : 00:03:25

CRC32 hash : 82C280ED
CRC32 hash (skip zero) : 13454EBF
AccurateRip v1 signature : 86D05CB0
AccurateRip v2 signature : AAD19AE9
->Accurately ripped (v1+v2, confidence 17+17/43)
Statistics
Read error : 0
Jitter error (maybe fixed) : 0
Retry sector count : 0
Damaged sector count : 0

Track 05
Filename : [REMOVE]/John Zorn - The Big Gundown /05 Zorn, John - Erotico (The Burglars).flac
Pre-gap length : 00:03:17

CRC32 hash : 2762D9F4
CRC32 hash (skip zero) : A151A10A
AccurateRip v1 signature : 0B6BF5D2
AccurateRip v2 signature : 9D35D303
->Accurately ripped (v1+v2, confidence 17+17/43)
Statistics
Read error : 0
Jitter error (maybe fixed) : 0
Retry sector count : 0
Damaged sector count : 0

Track 06
Filename : [REMOVE]/John Zorn - The Big Gundown /06 Zorn, John - Battle of Algiers.flac
Pre-gap length : 00:06:55

CRC32 hash : AED9B082
CRC32 hash (skip zero) : 80E81413
AccurateRip v1 signature : BEC5F977
AccurateRip v2 signature : A5CB613B
->Accurately ripped (v1+v2, confidence 17+17/43)
Statistics
Read error : 0
Jitter error (maybe fixed) : 0
Retry sector count : 0
Damaged sector count : 0

Track 07
Filename : [REMOVE]/John Zorn - The Big Gundown /07 Zorn, John - Gui La Testa (Duck, You Sucker!).flac
Pre-gap length : 00:04:67

CRC32 hash : 49302FE9
CRC32 hash (skip zero) : CD82D7D7
AccurateRip v1 signature : DDEE43C3
AccurateRip v2 signature : 615FD40D
->Accurately ripped (v1+v2, confidence 17+17/43)
Statistics
Read error : 0
Jitter error (maybe fixed) : 0
Retry sector count : 0
Damaged sector count : 0

Track 08
Filename : [REMOVE]/John Zorn - The Big Gundown /08 Zorn, John - Metamorfosi (La Classe Operaia Va In Paradiso).flac
Pre-gap length : 00:02:52

CRC32 hash : 2A75CC63
CRC32 hash (skip zero) : 37E233F7
AccurateRip v1 signature : CED26DA2
AccurateRip v2 signature : AC3AA1A5
->Accurately ripped (v1+v2, confidence 17+17/43)
Statistics
Read error : 0
Jitter error (maybe fixed) : 0
Retry sector count : 0
Damaged sector count : 0

Track 09
Filename : [REMOVE]/John Zorn - The Big Gundown /09 Zorn, John - Tre Nel 5000.flac
Pre-gap length : 00:07:67

CRC32 hash : 0D54BA20
CRC32 hash (skip zero) : 7C38301C
AccurateRip v1 signature : FE657138
AccurateRip v2 signature : 60534114
->Accurately ripped (v1+v2, confidence 17+17/43)
Statistics
Read error : 0
Jitter error (maybe fixed) : 0
Retry sector count : 0
Damaged sector count : 0

Track 10
Filename : [REMOVE]/John Zorn - The Big Gundown /10 Zorn, John - Once Upon A Time In The West.flac
Pre-gap length : 00:01:43

CRC32 hash : A19EA407
CRC32 hash (skip zero) : 51844945
AccurateRip v1 signature : 044EED0D
AccurateRip v2 signature : 27DCF687
->Accurately ripped (v1+v2, confidence 14+15/37)
Statistics
Read error : 0
Jitter error (maybe fixed) : 0
Retry sector count : 0
Damaged sector count : 0

No errors occurred

End of status report



  John Zorn – The Big Gundown.cue

TITLE "The Big Gundown"
PERFORMER "Zorn, John"
CATALOG 7559791390201
REM GENRE "Jazz"
REM DATE "1985"
REM DISCID 850BE50A
FILE "01 Zorn, John - The Big Gundown.flac" WAVE
TRACK 01 AUDIO
TITLE "The Big Gundown"
INDEX 01 00:00:00
TRACK 02 AUDIO
TITLE "Peur Sur La Ville"
INDEX 00 07:22:50
FILE "02 Zorn, John - Peur Sur La Ville.flac" WAVE
INDEX 01 00:00:00
TRACK 03 AUDIO
TITLE "Poverty (Once Upon A Time In America)"
INDEX 00 04:11:07
FILE "03 Zorn, John - Poverty (Once Upon A Time In America).flac" WAVE
INDEX 01 00:00:00
TRACK 04 AUDIO
TITLE "Milano Odea"
INDEX 00 03:45:52
FILE "04 Zorn, John - Milano Odea.flac" WAVE
INDEX 01 00:00:00
TRACK 05 AUDIO
TITLE "Erotico (The Burglars)"
INDEX 00 03:00:28
FILE "05 Zorn, John - Erotico (The Burglars).flac" WAVE
INDEX 01 00:00:00
TRACK 06 AUDIO
TITLE "Battle of Algiers"
INDEX 00 04:20:23
FILE "06 Zorn, John - Battle of Algiers.flac" WAVE
INDEX 01 00:00:00
TRACK 07 AUDIO
TITLE "Gui La Testa (Duck, You Sucker!)"
INDEX 00 03:45:45
FILE "07 Zorn, John - Gui La Testa (Duck, You Sucker!).flac" WAVE
INDEX 01 00:00:00
TRACK 08 AUDIO
TITLE "Metamorfosi (La Classe Operaia Va In Paradiso)"
INDEX 00 06:03:48
FILE "08 Zorn, John - Metamorfosi (La Classe Operaia Va In Paradiso).flac" WAVE
INDEX 01 00:00:00
TRACK 09 AUDIO
TITLE "Tre Nel 5000"
INDEX 00 04:28:73
FILE "09 Zorn, John - Tre Nel 5000.flac" WAVE
INDEX 01 00:00:00
TRACK 10 AUDIO
TITLE "Once Upon A Time In The West"
INDEX 00 04:36:05
FILE "10 Zorn, John - Once Upon A Time In The West.flac" WAVE
INDEX 01 00:00:00



Orario di seed e Banda disponibile: 50Kbps; 100Kbps 09:00-22:00 UTC

.: Babysitting & Reseed :.

user posted imageuser posted imageuser posted imageuser posted image


Messaggio modificato da Kafi il Mar 19 2017, 07:21 PM

> File Allegato
File Allegato   John Zorn - The Big Gundown (1986).torrent
Dimensione: 228 mb
Seeders:0
Leechers: 0
Completati: 170
Data ultimo seed: 2017-06-29 08:20:54
Info_hash: 96F762CAF760E5C87635515264D6AC4AA64DDECF
Visualizza la lista dei peers
Visualizza i dettagli del torrent
Messaggio PrivatoIndirizzo Email
Top
Utenti totali che stanno leggendo la discussione: 1 (1 Visitatori e 0 Utenti Anonimi)
Gli utenti registrati sono 0 :
 

Opzioni Discussione Rispondi a questa discussioneInizia nuova discussioneAvvia sondaggio

 

Scambio etico - ethic share
 Debian powered site  Nginx powered site  Php 5 powered site  MariaDB powered site  xml rss2.0 compliant  no software patents  no software patents