Tnt village
tntvillage.scambioetico.org · Statuto T.N.T.      Aiuto      Cerca      Utenti      Calendario

Questo sito non utilizza cookies a scopo di tracciamento o di profilazione. L'utilizzo dei cookies ha fini strettamente tecnici.

Sostieni movimentopirati.org

 

  Discussione chiusaInizia nuova discussione

> [GUIDA] Riconoscere una release lossless found, Scegliere e riconoscere un lossless ben fatto
lervit
  Inviato il: May 17 2012, 07:57 AM
Cita questo messaggio


\"100rel\"

Group Icon

Gruppo: Releaser
Messaggi: 780
Utente Nr.: 462875
Iscritto il: 10-June 10



user posted image





Piccola Guida

Quali torrent found lossless prendere dalla rete



Partiamo, ribadendo il concetto basilare, perché Lossless e non Lossy.

Come credo tutti sanno i formati di comprensione Lossy hanno un algoritmo di compressione molto alto e nel contempo nella compressione dalla fonte primaria che è sempre il CD originale in formato CDDA, vengono tagliate una bella porzione di frequenze sia alte che basse che vanno a snaturare la qualità del file musicale.

Nella compressione Lossless(senza Perdita)il releaser sempre dal CD originale usando un programma di compressione open sourse chiamato EAC (Exact Audio Copy ) opportunamente configurato rippa(comprime) le tracce CDDA in formato Flac o Ape che sono gli algoritmi di compressione più usati, ci sono due modi di rippare quello a traccia singola o a traccia unica. È evidente che EAC alla fine del rip restituisce le tracce separate o la traccia unica, il log di EAC e il file .Cue. Ottenuti questi file crea il torrent ed esporta tale torrent negli index o siti che preferisce. Dall’altra parte del filo c’è il downloader che scarca il torrent che se è quello fatto bene, tracce o image.flac o ape, il log.EAC ed il file.cue utilizzando il solo file.cue splitta i fle in formato CDDA ed ottiene un CD uguale all’originale rippato da noi.
E’ evidente che se manca il file.cue lo split non verrà mai uguale all’originale, certo si possono masterizzare le singole tracce in flac o ape ma non avendo le informazioni di Gap (silenzi tra le tracce) il software di masterizzazione mette di default 2 secondi di gap tra una traccia e l’altra e non è cosa da poco.

Passo adesso ad farvi vedere quali torrent dovreste prendere che anche se son fatti bene vanno considerati come Torrent Found e secondo il mio parere va specificato nella composizione della release, vorrei sapeste che quasi tutti i downloader di torrent lossless sanno benissimo leggere il log di EAC ed Il file.cue, quindi siate onesti nel dichiarare la natura del torrent senza attribuirvi meriti che non sono vostri, e come accade in molte Board, il releaser ringrazia scrivendolo in release il nick che ha postato il torrent che voi avete preso.

Adesso vi posto il log di Eac a cui farete riferimento:
il log ideale:

Exact Audio Copy V0.99 prebeta 4 from 23. January 2008

EAC extraction logfile from 5. November 2010, 6:43

Bill Evans / Portrait in Jazz

Used drive : HL-DT-STDVDRAM GSA-E10L Adapter: 2 ID: 0

Read mode : Secure
Utilize accurate stream : Yes
Defeat audio cache : Yes
Make use of C2 pointers : No


Read offset correction : 667
Overread into Lead-In and Lead-Out : No
Fill up missing offset samples with silence : Yes
Delete leading and trailing silent blocks : No
Null samples used in CRC calculations : Yes

Used interface : Installed external ASPI interface
Gap handling : Appended to previous track

Used output format : User Defined Encoder
Selected bitrate : 768 kBit/s
Quality : High
Add ID3 tag : No
Command line compressor : C:\Programmi\Exact Audio Copy\FLAC\FLAC.EXE
Additional command line options : -8 -V -T "ARTIST=%a" -T "TITLE=%t" -T "ALBUM=%g" -T "DATE=%y" -T "TRACKNUMBER=%n" -T "GENRE=%m" -T "COMMENT=%e" %s -o %d


TOC of the extracted CD

Track | Start | Length | Start sector | End sector
---------------------------------------------------------
1 | 0:00.37 | 3:24.28 | 37 | 15364
2 | 3:24.65 | 6:00.25 | 15365 | 42389
3 | 9:25.15 | 5:25.07 | 42390 | 66771
4 | 14:50.22 | 4:35.70 | 66772 | 87466
5 | 19:26.17 | 4:57.58 | 87467 | 109799
6 | 24:24.00 | 3:15.37 | 109800 | 124461
7 | 27:39.37 | 4:37.65 | 124462 | 145301
8 | 32:17.27 | 5:08.10 | 145302 | 168411
9 | 37:25.37 | 4:55.45 | 168412 | 190581
10 | 42:21.07 | 5:25.68 | 190582 | 215024
11 | 47:47.00 | 4:29.60 | 215025 | 235259


Track 1

Filename C:\EACrip\01 - Bill Evans - Come Rain or Come Shine.wav

Pre-gap length 0:00:02.49

Peak level 91.8 %
Track quality 100.0 %
Test CRC DE927B5B
Copy CRC DE927B5B
Accurately ripped (confidence 6) [D1E39387]
Copy OK

Track 2

Filename C:\EACrip\02 - Bill Evans - Autumn Leaves (take 1).wav

Pre-gap length 0:00:03.85

Peak level 93.5 %
Track quality 100.0 %
Test CRC 697D63AA
Copy CRC 697D63AA
Accurately ripped (confidence 6) [415C198E]
Copy OK

Track 3

Filename C:\EACrip\03 - Bill Evans - Autumn Leaves (take 2).wav

Pre-gap length 0:00:02.92

Peak level 100.0 %
Track quality 99.9 %
Test CRC 858DC579
Copy CRC 858DC579
Accurately ripped (confidence 6) [CB51E737]
Copy OK

Track 4

Filename C:\EACrip\04 - Bill Evans - Witchcraft.wav

Pre-gap length 0:00:02.58

Peak level 79.5 %
Track quality 99.9 %
Test CRC C280837E
Copy CRC C280837E
Accurately ripped (confidence 6) [35ACB4FA]
Copy OK

Track 5

Filename C:\EACrip\05 - Bill Evans - When I Fall in Love.wav

Pre-gap length 0:00:03.05

Peak level 97.0 %
Track quality 100.0 %
Test CRC 3531D09A
Copy CRC 3531D09A
Accurately ripped (confidence 6) [AE731931]
Copy OK

Track 6

Filename C:\EACrip\06 - Bill Evans - Peri's Scope.wav

Pre-gap length 0:00:02.62

Peak level 100.0 %
Track quality 100.0 %
Test CRC 4FC988F0
Copy CRC 4FC988F0
Accurately ripped (confidence 6) [6C921415]
Copy OK

Track 7

Filename C:\EACrip\07 - Bill Evans - What's This Thing Called Love .wav

Pre-gap length 0:00:03.05

Peak level 100.0 %
Track quality 100.0 %
Test CRC 23CCB4E1
Copy CRC 23CCB4E1
Accurately ripped (confidence 6) [63CD87F6]
Copy OK

Track 8

Filename C:\EACrip\08 - Bill Evans - Spring is Here.wav

Pre-gap length 0:00:03.33

Peak level 100.0 %
Track quality 99.9 %
Test CRC BA7C83BC
Copy CRC BA7C83BC
Accurately ripped (confidence 6) [C84E39C9]
Copy OK

Track 9

Filename C:\EACrip\09 - Bill Evans - Someday My Prince Will Come.wav

Pre-gap length 0:00:03.28

Peak level 92.1 %
Track quality 100.0 %
Test CRC A48F60D8
Copy CRC A48F60D8
Accurately ripped (confidence 6) [C6DCC865]
Copy OK

Track 10

Filename C:\EACrip\10 - Bill Evans - Blue in Green (take 3).wav

Pre-gap length 0:00:02.61

Peak level 100.0 %
Track quality 100.0 %
Test CRC E00736FA
Copy CRC E00736FA
Accurately ripped (confidence 6) [AE28E51D]
Copy OK

Track 11

Filename C:\EACrip\11 - Bill Evans - Blue in Green (take 2).wav

Pre-gap length 0:00:02.96

Peak level 100.0 %
Track quality 100.0 %
Test CRC 19E5F6C9
Copy CRC 19E5F6C9
Accurately ripped (confidence 6) [E1D077C6]
Copy OK

All tracks accurately ripped

No errors occurred(niente errori) There were error (Ci sono stati errori)

End of status report


Il valore dell’offset correction deve essere nel nostro caso di colore rosso quello stabilito dal database di accurate rip che andrete a consultare a questo link http://www.accuraterip.com/driveoffsets.htm , ogni masterizzatore ha il suo valore di offsett e se verificate discordanza tra il valore e il drive del masterizzatore, consideratelo un badrip quindi vi consiglio di non prenderlo.
Nel nostro caso il valore +667 corrisponde al drive del masterizzatore.
L’operazione successiva è quella di controllare che il setting dei valori che ho marcato in blu devono essere uguali a quelli marcati sul log sopra menzionato, una sola differenza di questi parametri viene considerata badrip. In arancione vi ho marcato un valore che forse troverete sole le confidence, cosa sono, il valore numerico nel nostro caso 6, vuol dire che altri 6 ripper hanno fatto la compressione di questo CD con i valori ed i setting uguali al vostro, è evidente che più alto è il valore delle confidence più alto è il valore del vostro rip. Ultima cosa che dovete accertare che alla fine del log non ci sia la scritta “There were error”, questo vuol dire che durante la fase di compressione ci sono stati degli errori nella compressione di una traccia o più tracce, quindi badrip non prendetelo.
Una piccola scorciatoia, quando scaricate il torrent, (io uso utorrent) prma che il client torrent lo metta in download si apre una icona/finestra, dove è elencato il contenuto del torrent, di conseguenza saprete cosa andrete a scaricare, se nella lista manca il file.cue sapete a cosa andate in contro se lo scaricate, se ci sono il cue ed il log di EAC vi consiglio prima di scaricare il torrent di selezionare spuntando sia il log EAC che il Cue e scaricate solo quelli, una volta scaricati li potrete aprire e leggerne il contenuto, se non sono conformi a quanto innanzi scritto, non scaricate il torrent.
Per oggi m fermo qui, se noto che il post è di vostro gradimento e volete approfondire postate sotto anche delle domande specifiche, non vi assicuro una risposta immediata ma ne avrete una appena possibile.
Penso sia superfluo dire che i file di log sia di Eac che il Cue non vanno ne editati ne modificati.

Mi preme precisare che i miei sono soltanto dei consigli per gli Amici lossless releaser e per i funzionari in prova, Funzionari e Dirigenti della Sezione Disco.

Visto l'interesse mostrato vi posto alcuni esempi di log di EAC che troverete in rete.


Log di EAC con traccia unica in formato Flac (image.flac)

Exact Audio Copy V0.99 prebeta 4 from 23. January 2008

EAC extraction logfile from 20. February 2002, 7:28

Eero Koivistoinen / Altered Things

Used drive : ASUS DRW-1814BL Adapter: 0 ID: 0

Read mode : Secure
Utilize accurate stream : Yes
Defeat audio cache : Yes
Make use of C2 pointers : No

Read offset correction : 6
Overread into Lead-In and Lead-Out : No
Fill up missing offset samples with silence : Yes
Delete leading and trailing silent blocks : No
Null samples used in CRC calculations : Yes
Used interface : Native Win32 interface for Win NT & 2000

Used output format : Internal WAV Routines
Sample format : 44.100 Hz; 16 Bit; Stereo


TOC of the extracted CD

Track | Start | Length | Start sector | End sector
---------------------------------------------------------
1 | 0:00.00 | 5:29.33 | 0 | 24707
2 | 5:29.33 | 6:46.12 | 24708 | 55169
3 | 12:15.45 | 7:53.43 | 55170 | 90687
4 | 20:09.13 | 7:07.22 | 90688 | 122734
5 | 27:16.35 | 7:52.15 | 122735 | 158149
6 | 35:08.50 | 5:15.60 | 158150 | 181834
7 | 40:24.35 | 4:06.30 | 181835 | 200314
8 | 44:30.65 | 5:06.60 | 200315 | 223324
9 | 49:37.50 | 8:40.13 | 223325 | 262337
10 | 58:17.63 | 5:07.30 | 262338 | 285392


Range status and errors

Selected range

Filename C:\Desktop\Eero Koivistoinen - Altered Things (1992)\Eero Koivistoinen - Altered Things.wav

Peak level 94.5 %
Range quality 99.9 %
Copy CRC CF9A1057
Copy OK

No errors occurred

End of status report

Questo è un buon rip dove manca la certificazione di AccurateRip e relative confidence, consiglio....si può prendere è conforme.
E' pacifico che il controllo, come da me consigliato per il log di riferimento, va sempre fatto, nel caso specifico la verifica sul valore dell'offset l'ho fatta io per voi e il database di Accurate alla mia richiesta mi restituisce:

CD Drive Correction Offset
ASUS - DRW-1814BL +6

quindi l'offset impostato nel log è giusto.
Giusto settaggio, parametri ok, si può prendere ottimo rip.


Log di EAC con traccia unica in formato Flac (image.flac)
con certificazione AccurateRip e confidence;



Exact Audio Copy V0.99 prebeta 4 from 23. January 2008

EAC extraction logfile from 13. December 2009, 13:03

Benny Golson / Stardust

Used drive : _NEC DVD_RW ND-3500AG Adapter: 0 ID: 0

Read mode : Secure
Utilize accurate stream : Yes
Defeat audio cache : Yes
Make use of C2 pointers : No

Read offset correction : 48
Overread into Lead-In and Lead-Out : No
Fill up missing offset samples with silence : Yes
Delete leading and trailing silent blocks : No
Null samples used in CRC calculations : Yes
Used interface : Native Win32 interface for Win NT & 2000

Used output format : User Defined Encoder
Selected bitrate : 768 kBit/s
Quality : High
Add ID3 tag : No
Command line compressor : C:\Program Files\Exact Audio Copy\FLAC\FLAC.EXE
Additional command line options :-6 -V -T "ARTIST=%a" -T "TITLE=%t" -T "ALBUM=%g" -T "DATE=%y" -T "TRACKNUMBER=%n" -T "GENRE=%m" -T "COMMENT=%e" %s -o %d


TOC of the extracted CD

Track | Start | Length | Start sector | End sector
---------------------------------------------------------
1 | 0:00.00 | 9:10.47 | 0 | 41296
2 | 9:10.47 | 9:23.10 | 41297 | 83531
3 | 18:33.57 | 4:43.43 | 83532 | 104799
4 | 23:17.25 | 12:15.60 | 104800 | 159984
5 | 35:33.10 | 7:30.40 | 159985 | 193774
6 | 43:03.50 | 10:18.35 | 193775 | 240159
7 | 53:22.10 | 13:47.20 | 240160 | 302204


Range status and errors

Selected range

Filename J:\eMusic\Rip\Benny Golson - Stardust.wav

Peak level 92.7 %
Range quality 99.9 %
Test CRC C9F0521B
Copy CRC C9F0521B
Copy OK

No errors occurred


AccurateRip summary

Track 1 accurately ripped (confidence 2) [CFCD8C55]
Track 2 accurately ripped (confidence 3) [55A9D6BB]
Track 3 accurately ripped (confidence 3) [F6CB2BAD]
Track 4 accurately ripped (confidence 2) [3A55EBB6]
Track 5 accurately ripped (confidence 2) [6323025E]
Track 6 accurately ripped (confidence 3) [01E8ED69]
Track 7 accurately ripped (confidence 2) [7AA50009]

All tracks accurately ripped

End of status report

Anche questo è un buon rip found che in più del precedente ha le confidence che sono un valore aggiunto alla bontà del rip. Vorrei notaste che ogn rip può avere dei valori dell'algoritmo di compressione, nel caso specifico tale valore è -6 il range di tale valore va da 0 a 8, è ovvio che nella command line più è alto il valore meno compresso è il file, in compenso ha una qualità maggiore.

anche in questo caso la verifica sul valore dell'offset l'ho fatta io per voi e il database di Accurate alla mia richiesta mi restituisce:

CD Drive Correction Offset
NEC - DVD_RW ND-3500AG +48

Giusto settaggio, parametri ok, confidence di Accurate, si può prendere ottimo rip.

Log di EAC con tracce singole in formato Flac (single.flac) Test&Copy
senza certificazione AccurateRip e confidence;


Exact Audio Copy V0.99 prebeta 5 from 4. May 2009

EAC extraction logfile from 20. November 2010, 19:40

Charlie Haden Quartet West / Sophisticated Ladies

Used drive : TSSTcorpCD/DVDW TS-H552L Adapter: 3 ID: 0

Read mode : Secure
Utilize accurate stream : Yes
Defeat audio cache : Yes
Make use of C2 pointers : No

Read offset correction : 6
Overread into Lead-In and Lead-Out : No
Fill up missing offset samples with silence : Yes
Delete leading and trailing silent blocks : No
Null samples used in CRC calculations : Yes
Used interface : Native Win32 interface for Win NT & 2000
Gap handling : Appended to previous track

Used output format : User Defined Encoder
Selected bitrate : 1024 kBit/s
Quality : High
Add ID3 tag : No
Command line compressor : C:\Program Files\FLAC\flac.exe
Additional command line options : -6 -V -T "ARTIST=%a" -T "TITLE=%t" -T "ALBUM=%g" -T "DATE=%y" -T "TRACKNUMBER=%n" -T "GENRE=%m" -T "COMMENT=EAC FLAC -6" %s


TOC of the extracted CD

Track | Start | Length | Start sector | End sector
---------------------------------------------------------
1 | 0:00.00 | 5:39.73 | 0 | 25497
2 | 5:39.73 | 4:28.62 | 25498 | 45659
3 | 10:08.60 | 4:25.03 | 45660 | 65537
4 | 14:33.63 | 5:23.11 | 65538 | 89773
5 | 19:56.74 | 4:14.36 | 89774 | 108859
6 | 24:11.35 | 4:40.16 | 108860 | 129875
7 | 28:51.51 | 5:52.12 | 129876 | 156287
8 | 34:43.63 | 4:08.53 | 156288 | 174940
9 | 38:52.41 | 5:13.18 | 174941 | 198433
10 | 44:05.59 | 5:35.04 | 198434 | 223562
11 | 49:40.63 | 5:48.72 | 223563 | 249734
12 | 55:29.60 | 4:52.44 | 249735 | 271678


Track 1

Filename E:\EAC\Charlie Haden Quartet West - Sophisticated Ladies (2010) {Emarcy}\01 - If I'm Lucky.wav

Pre-gap length 0:00:02.00

Peak level 100.0 %
Track quality 100.0 %
Test CRC 81FE9B28
Copy CRC 81FE9B28
Track not present in AccurateRip database
Copy OK

Track 2

Filename E:\EAC\Charlie Haden Quartet West - Sophisticated Ladies (2010) {Emarcy}\02 - Sophisticated Lady.wav

Peak level 86.2 %
Track quality 100.0 %
Test CRC A21884FF
Copy CRC A21884FF
Track not present in AccurateRip database
Copy OK

Track 3

Filename E:\EAC\Charlie Haden Quartet West - Sophisticated Ladies (2010) {Emarcy}\03 - Ill Wind.wav

Peak level 99.9 %
Track quality 100.0 %
Test CRC 64225609
Copy CRC 64225609
Track not present in AccurateRip database
Copy OK

Track 4

Filename E:\EAC\Charlie Haden Quartet West - Sophisticated Ladies (2010) {Emarcy}\04 - Today I Am A Man.wav

Peak level 100.0 %
Track quality 100.0 %
Test CRC CED811E3
Copy CRC CED811E3
Track not present in AccurateRip database
Copy OK

Track 5

Filename E:\EAC\Charlie Haden Quartet West - Sophisticated Ladies (2010) {Emarcy}\05 - My Love And I.wav

Peak level 92.8 %
Track quality 100.0 %
Test CRC 0C2CEE7C
Copy CRC 0C2CEE7C
Track not present in AccurateRip database
Copy OK

Track 6

Filename E:\EAC\Charlie Haden Quartet West - Sophisticated Ladies (2010) {Emarcy}\06 - Theme From 'Markham'.wav

Peak level 94.7 %
Track quality 100.0 %
Test CRC 95DE4F73
Copy CRC 95DE4F73
Track not present in AccurateRip database
Copy OK

Track 7

Filename E:\EAC\Charlie Haden Quartet West - Sophisticated Ladies (2010) {Emarcy}\07 - Let's Call It A Day.wav

Peak level 100.0 %
Track quality 100.0 %
Test CRC F44CEF4D
Copy CRC F44CEF4D
Track not present in AccurateRip database
Copy OK

Track 8

Filename E:\EAC\Charlie Haden Quartet West - Sophisticated Ladies (2010) {Emarcy}\08 - Angel Face.wav

Peak level 100.0 %
Track quality 99.9 %
Test CRC 5C55E0E4
Copy CRC 5C55E0E4
Track not present in AccurateRip database
Copy OK

Track 9

Filename E:\EAC\Charlie Haden Quartet West - Sophisticated Ladies (2010) {Emarcy}\09 - A Love Like This.wav

Peak level 100.0 %
Track quality 100.0 %
Test CRC 3B476928
Copy CRC 3B476928
Track not present in AccurateRip database
Copy OK

Track 10

Filename E:\EAC\Charlie Haden Quartet West - Sophisticated Ladies (2010) {Emarcy}\10 - My Old Flame.wav

Peak level 100.0 %
Track quality 99.9 %
Test CRC 0801B709
Copy CRC 0801B709
Track not present in AccurateRip database
Copy OK

Track 11

Filename E:\EAC\Charlie Haden Quartet West - Sophisticated Ladies (2010) {Emarcy}\11 - Goodbye.wav

Peak level 99.6 %
Track quality 100.0 %
Test CRC ECB1CBEE
Copy CRC ECB1CBEE
Track not present in AccurateRip database
Copy OK

Track 12

Filename E:\EAC\Charlie Haden Quartet West - Sophisticated Ladies (2010) {Emarcy}\12 - Wahoo.wav

Peak level 100.0 %
Track quality 99.9 %
Test CRC 65C61695
Copy CRC 65C61695
Track not present in AccurateRip database
Copy OK


None of the tracks are present in the AccurateRip database

No errors occurred

End of status report


anche in questo caso la verifica sul valore dell'offset l'ho fatta io per voi e il database di Accurate alla mia richiesta mi restituisce:

CD Drive Correction Offset
TSSTcorp - CD-DVDW TS-H552L +6

In questo caso specifico il rip è stata fatto da EAC con la funzione "Test&Copy" cosa significa? le tracce singole in formato .flac sono state lette 2 volte, la primacon la funzione Test e la seconda con la funzione Copy. Questo lo si evince leggendo i dati che EAC restituisce nel file di log sopra scritto,
esempio

Track 12

Filename E:\EAC\Charlie Haden Quartet West - Sophisticated Ladies (2010) {Emarcy}\12 - Wahoo.wav

Peak level 100.0 %
Track quality 99.9 %
Test CRC 65C61695
Copy CRC 65C61695

Track not present in AccurateRip database
Copy OK

Giusto settaggio, parametri ok, si può prendere ottimo rip.

Log di EAC con tracce singole in formato Flac (single.flac) Test&Copy
con certificazione AccurateRip e confidence;


Exact Audio Copy V0.99 prebeta 4 from 23. January 2008

EAC extraction logfile from 9. January 2010, 18:38

Miles Davis / Kind of Blue (1997 Remaster)

Used drive : HL-DT-STDVDRAM GSA-E10L Adapter: 2 ID: 0

Read mode : Secure
Utilize accurate stream : Yes
Defeat audio cache : Yes
Make use of C2 pointers : No

Read offset correction : 667
Overread into Lead-In and Lead-Out : No
Fill up missing offset samples with silence : Yes
Delete leading and trailing silent blocks : No
Null samples used in CRC calculations : Yes
Used interface : Installed external ASPI interface
Gap handling : Appended to previous track

Used output format : User Defined Encoder
Selected bitrate : 768 kBit/s
Quality : High
Add ID3 tag : No
Command line compressor : C:\Programmi\Exact Audio Copy\FLAC\FLAC.EXE
Additional command line options : -8 -V -T "artist=%a" -T "title=%t" -T "album=%g" -T "date=%y" -T "tracknumber=%n" -T "genre=%m" %s


TOC of the extracted CD

Track | Start | Length | Start sector | End sector
---------------------------------------------------------
1 | 0:00.00 | 9:25.00 | 0 | 42374
2 | 9:25.00 | 9:49.05 | 42375 | 86554
3 | 19:14.05 | 5:37.42 | 86555 | 111871
4 | 24:51.47 | 11:35.58 | 111872 | 164054
5 | 36:27.30 | 9:26.10 | 164055 | 206514
6 | 45:53.40 | 9:31.65 | 206515 | 249404


Track 1

Filename C:\EACrip\01 - Miles Davis - So What .wav

Pre-gap length 0:00:02.00

Peak level 94.4 %
Track quality 99.9 %
Test CRC 33D07D6F
Copy CRC 33D07D6F
Accurately ripped (confidence 200) [BF9E60B7]
Copy OK

Track 2

Filename C:\EACrip\02 - Miles Davis - Freddie Freeloader .wav

Pre-gap length 0:00:02.60

Peak level 94.4 %
Track quality 99.9 %
Test CRC 75392A2B
Copy CRC 75392A2B
Accurately ripped (confidence 200) [002094C4]
Copy OK

Track 3

Filename C:\EACrip\03 - Miles Davis - Blue in Green .wav

Pre-gap length 0:00:02.57

Peak level 89.8 %
Track quality 100.0 %
Test CRC E1F23CF0
Copy CRC E1F23CF0
Accurately ripped (confidence 200) [93B6B811]
Copy OK

Track 4

Filename C:\EACrip\04 - Miles Davis - All Blues .wav

Pre-gap length 0:00:00.40

Peak level 94.4 %
Track quality 100.0 %
Test CRC ED3A457F
Copy CRC ED3A457F
Accurately ripped (confidence 200) [A7F414E2]
Copy OK

Track 5

Filename C:\EACrip\05 - Miles Davis - Flamenco Sketches .wav

Pre-gap length 0:00:02.80

Peak level 94.4 %
Track quality 99.9 %
Test CRC 1AF426CC
Copy CRC 1AF426CC
Accurately ripped (confidence 200) [43D67A72]
Copy OK

Track 6

Filename C:\EACrip\06 - Miles Davis - Flamenco Sketches (Alternate Take) .wav

Pre-gap length 0:00:00.06

Peak level 94.4 %
Track quality 100.0 %
Test CRC BECFF81F
Copy CRC BECFF81F
Accurately ripped (confidence 200) [27325B41]
Copy OK


All tracks accurately ripped

No errors occurred

End of status report

anche in questo caso la verifica sul valore dell'offset l'ho fatta io per voi e il database di Accurate alla mia richiesta mi restituisce:

CD Drive Correction Offset
LG Electronics - DVDRAM GSA-E10L +667

Accurately ripped (confidence 200)

Giusto settaggio, parametri ok, alto numero di confidence Accurate, si può prendere rip ideale.

Ho elencato i log più comuni e conformi di Eac che potrete trovare in rete e scaricare con tranquillità trattandosi di ottimi Rip e conformi.

Per eventuali dubbi su specifici log di Eac, potete mandarmi un MP e appena possibile avrete una risposta.

Grazie per l'attenzione.

lervit


Per eventuali ulteriori chiarimenti chiedete in *Questo Forum*[/b][/align]

Messaggio modificato da mercury il Jun 10 2012, 07:48 PM

Jazz Drummer


Founder "JazzPlanet" Crew


Le mie release senza seed? Mandatemi un MP e mi metto a sedarle"
Messaggio Privato
Top
Utenti totali che stanno leggendo la discussione: 0 (0 Visitatori e 0 Utenti Anonimi)
Gli utenti registrati sono 0 :
 

Opzioni Discussione Discussione chiusaInizia nuova discussione

 

Scambio etico - ethic share
 Debian powered site  Nginx powered site  Php 5 powered site  MariaDB powered site  xml rss2.0 compliant  no software patents  no software patents